Поиск

(Soul-Jazz) [CD] Grassella Oliphant - The Grass Is Greener - 1965 (2013 Japan Edition), FLAC (image+.cue), lossless

(Soul-Jazz) [CD] Grassella Oliphant - The Grass Is Greener - 1965 (2013 Japan Edition), FLAC (image+.cue), lossless
Треклист:
Grassella Oliphant - The Grass Is Greener
Жанр: Soul-Jazz
Носитель: CD
Страна-производитель диска (релиза): Япония
Год издания: 2013
Издатель (лейбл): Atlantic/WEA/Warner
Номер по каталогу: WPCR-27387
Страна исполнителя (группы): США
Аудиокодек: FLAC (*.flac)
Тип рипа: image+.cue
Битрейт аудио: lossless
Продолжительность: 34:13
Источник (релизер): диск из моей коллекции
Наличие сканов в содержимом раздачи: да
Треклист:
01. Get Out of My Life Woman (Toussaint) - 2:45
02. Ain't That Peculiar (Robinson-Moore-Tarplin-Rogers) - 2:53
03. Soul Woman (Patton-Green) - 5:19
04. Peaches Are Better Down the Road (Terry) - 5:50
05. The Yodel (Patton-Green) - 6:35
06. Cantaloupe Woman (Dixon) - 4:40
07. The Latter Days (Ousley) - 3:05
08. Rapid Shave (Burns) - 3:06
Состав:
Grassella Oliphant - drums
Grant Green - guitar
John Patton - organ
Harold Ousley - tenor saxophone (#1,2,4,5,7,8)
Clark Terry (#1,2,4,5,7,8) - trumpet, flugelhorn, pocket trumpet
Major Holley - bass (#1,4,5,7,8), Fender bass (#2)
Recorded in New York on March 1, 1965.
 
Лог создания рипа
Exact Audio Copy V1.3 from 2. September 2016
EAC extraction logfile from 11. October 2016, 21:07
Grassella Oliphant / The Grass Is Greener
Used drive : ASUS DRW-24B1LT Adapter: 1 ID: 1
Read mode : Secure
Utilize accurate stream : Yes
Defeat audio cache : Yes
Make use of C2 pointers : No
Read offset correction : 6
Overread into Lead-In and Lead-Out : No
Fill up missing offset samples with silence : Yes
Delete leading and trailing silent blocks : No
Null samples used in CRC calculations : Yes
Used interface : Installed external ASPI interface
Used output format : User Defined Encoder
Selected bitrate : 768 kBit/s
Quality : High
Add ID3 tag : No
Command line compressor : C:\Program Files (x86)\Exact Audio Copy\Flac\flac.exe
Additional command line options : -8 -V -T "ARTIST=%artist%" -T "TITLE=%title%" -T "ALBUM=%albumtitle%" -T "DATE=%year%" -T "TRACKNUMBER=%tracknr%" -T "TOTALTRACKS=%numtracks%" -T "GENRE=%genre%" -T "ALBUMARTIST=%albumartist%" -T "ALBUM ARTIST=%albumartist%" -T "COMMENT=EAC Secure Mode, Test & Copy, AccurateRip, FLAC -8" %source%
TOC of the extracted CD
Track | Start | Length | Start sector | End sector
---------------------------------------------------------
1 | 0:00.00 | 2:45.33 | 0 | 12407
2 | 2:45.33 | 2:53.01 | 12408 | 25383
3 | 5:38.34 | 5:19.27 | 25384 | 49335
4 | 10:57.61 | 5:49.47 | 49336 | 75557
5 | 16:47.33 | 6:35.13 | 75558 | 105195
6 | 23:22.46 | 4:39.45 | 105196 | 126165
7 | 28:02.16 | 3:05.15 | 126166 | 140055
8 | 31:07.31 | 3:05.67 | 140056 | 153997
Range status and errors
Selected range
Filename F:\audio\Grassella Oliphant - The Grass Is Greener.wav
Peak level 100.0 %
Extraction speed 5.0 X
Range quality 100.0 %
Test CRC 359F6AA4
Copy CRC 359F6AA4
Copy OK
No errors occurred
AccurateRip summary
Track 1 not present in database
Track 2 not present in database
Track 3 not present in database
Track 4 not present in database
Track 5 not present in database
Track 6 not present in database
Track 7 not present in database
Track 8 not present in database
None of the tracks are present in the AccurateRip database
End of status report
---- CUETools DB Plugin V2.1.6
[CTDB TOCID: JnnU2IcvccXevz8.ObVJ4v.5OJQ-] found
Submit result: JnnU2IcvccXevz8.ObVJ4v.5OJQ- has been confirmed
Track | CTDB Status
1 | (1/1) Accurately ripped
2 | (1/1) Accurately ripped
3 | (1/1) Accurately ripped
4 | (1/1) Accurately ripped
5 | (1/1) Accurately ripped
6 | (1/1) Accurately ripped
7 | (1/1) Accurately ripped
8 | (1/1) Accurately ripped
==== Log checksum 65E1890B35A1ABF1F1BECFD1E86029C6992A1B7AACF6B6DBB7ACB4778FA68593 ====
 
Содержание индексной карты (.CUE)
REM GENRE Jazz
REM DATE 1965
REM DISCID 69080508
REM COMMENT "ExactAudioCopy v1.3"
PERFORMER "Grassella Oliphant"
TITLE "The Grass Is Greener"
FILE "Grassella Oliphant - The Grass Is Greener.wav" WAVE
TRACK 01 AUDIO
TITLE "Get Out of My Life Woman"
PERFORMER "Grassella Oliphant"
INDEX 01 00:00:00
TRACK 02 AUDIO
TITLE "Ain't That Peculiar"
PERFORMER "Grassella Oliphant"
INDEX 00 02:44:22
INDEX 01 02:45:33
TRACK 03 AUDIO
TITLE "Soul Woman"
PERFORMER "Grassella Oliphant"
INDEX 00 05:37:38
INDEX 01 05:38:34
TRACK 04 AUDIO
TITLE "Peaches Are Better Down the Road"
PERFORMER "Grassella Oliphant"
INDEX 00 10:57:05
INDEX 01 10:57:61
TRACK 05 AUDIO
TITLE "The Yodel"
PERFORMER "Grassella Oliphant"
INDEX 00 16:46:06
INDEX 01 16:47:33
TRACK 06 AUDIO
TITLE "Cantaloupe Woman"
PERFORMER "Grassella Oliphant"
INDEX 00 23:20:68
INDEX 01 23:22:46
TRACK 07 AUDIO
TITLE "The Latter Days"
PERFORMER "Grassella Oliphant"
INDEX 00 28:00:55
INDEX 01 28:02:16
TRACK 08 AUDIO
TITLE "Rapid Shave"
PERFORMER "Grassella Oliphant"
INDEX 00 31:05:74
INDEX 01 31:07:31
 
Отчет CUETools
[CUETools log; Date: 11.10.2016 21:08:53; Version: 2.1.5]
[CTDB TOCID: JnnU2IcvccXevz8.ObVJ4v.5OJQ-] found.
Track | CTDB Status
1 | (2/2) Accurately ripped
2 | (2/2) Accurately ripped
3 | (2/2) Accurately ripped
4 | (2/2) Accurately ripped
5 | (2/2) Accurately ripped
6 | (2/2) Accurately ripped
7 | (2/2) Accurately ripped
8 | (2/2) Accurately ripped
[AccurateRip ID: 000a7fe6-0047ab27-69080508] disk not present in database.
Track Peak [ CRC32 ] [W/O NULL] [ LOG ]
-- 100,0 [359F6AA4] [748F74A5] CRC32
01 100,0 [D0CAFDC0] [3FF6006C]
02 100,0 [A3ABA999] [ACB75C9C]
03 100,0 [2B543722] [7D6A399A]
04 100,0 [0AEF30FF] [5D9C65B2]
05 100,0 [82E68C4E] [0D73564F]
06 100,0 [8C3FE604] [7EF1F00B]
07 100,0 [82CFDD2E] [21FC1810]
08 100,0 [C1B6F29B] [3E6098AD]
 
AllMusic Review by Stephen Cook
Drummer Grassella Oliphant's The Grass Is Greener is as good as it is rare. One of many soulful organ jazz dates that have gained cult status among sample hungry hip-hop and acid jazz devotees, this 1967 Atlantic album is packed with great playing and solid grooves (besides recording only one other album as a leader, his 1965 debut The Grass Roots, Oliphant also appeared on dates by singer Gloria Lynne and organist Shirley Scott, among others). With guitarist Grant Green and B-3 master John Patton completing the classic organ combo setup, the trio particularly stretch out on fine numbers like "Cantaloupe Woman" and Patton's own "Soul Woman." While these cuts are marked by a progressive, almost modal sound, much of the other material, which also features tenor saxophonist Harold Ousley and trumpeter Clark Terry, has a more down home and groove-heavy flavor; this is especially true on Terry's "Peaches Are Better Down the Road" and a cover of Allen Toussaint's classic bit of New Orleans soul, "Get Out of My Life Woman." Other standouts include a rendition of Marvin Gaye's "Ain't That Peculiar" and Ousley's breezy Latin swinger "The Latter Days." A great set.
Приватный:
Нет (DHT включён)
Размер:
243.19 Мб (254,999,944 байт) » файлов: 11
Участники:
0 раздают, 0 качают (0 участников всего)
Внешние участники:
3 раздают, 1 качают (4 участников всего) [ Обновить ]
Есть вопросы - пишите личное сообщение пользователю M0p94ok.
12:08
73
Нет комментариев. Ваш будет первым!