Поиск

(Jazz-Funk, Disco) [CD] 94 East - Minneapolis Genius (The Historic 1977 Recordings) - 1987, FLAC (tracks+.cue), lossless

(Jazz-Funk, Disco) [CD] 94 East - Minneapolis Genius (The Historic 1977 Recordings) - 1987, FLAC (tracks+.cue), lossless
Треклист:
94 East / Minneapolis Genius (The Historic 1977 Recordings)
Жанр: Jazz-Funk, Disco
Носитель: CD
Год издания: 1987
Издатель (лейбл): Castle Communications
Номер по каталогу: CLACD 132
Аудиокодек: FLAC (*.flac)
Тип рипа: tracks+.cue
Битрейт аудио: lossless
Продолжительность: 33:35
Источник (релизер): xbtmusic.org
Наличие сканов в содержимом раздачи: да
Треклист:
01. 94 East - If You Feel Like Dancin' (7:14)
02. 94 East - Lovin' Cup (4:24)
03. 94 East - Games (5:04)
04. 94 East - Just Another Sucker (5:24)
05. 94 East - Dance To The Music Of The World (5:12)
06. 94 East - One Man Jam (6:18)
 
Лог создания рипа
Exact Audio Copy V1.0 beta 3 from 29. August 2011
EAC extraction logfile from 12. April 2015, 22:21
94 East / Minneapolis Genius
Used drive : hp DVD A DH16ABSH Adapter: 0 ID: 0
Read mode : Secure
Utilize accurate stream : Yes
Defeat audio cache : Yes
Make use of C2 pointers : No
Read offset correction : 6
Overread into Lead-In and Lead-Out : No
Fill up missing offset samples with silence : Yes
Delete leading and trailing silent blocks : No
Null samples used in CRC calculations : Yes
Used interface : Native Win32 interface for Win NT & 2000
Gap handling : Appended to previous track
Used output format : User Defined Encoder
Selected bitrate : 896 kBit/s
Quality : High
Add ID3 tag : No
Command line compressor : C:\Program Files (x86)\Exact Audio Copy\Flac\flac.exe
Additional command line options : -8 -V -T "ARTIST=%artist%" -T "TITLE=%title%" -T "ALBUM=%albumtitle%" -T "DATE=%year%" -T "TRACKNUMBER=%tracknr%" -T "TOTALTRACKS=%numtracks%" -T "GENRE=%genre%" -T "ALBUMARTIST=%albumartist%" -T "ALBUM ARTIST=%albumartist%" -T "COMMENT=EAC Secure Mode, Test & Copy, AccurateRip, FLAC -8" %source%
TOC of the extracted CD
Track | Start | Length | Start sector | End sector
---------------------------------------------------------
1 | 0:00.33 | 7:13.60 | 33 | 32567
2 | 7:14.18 | 4:23.72 | 32568 | 52364
3 | 11:38.15 | 5:03.65 | 52365 | 75154
4 | 16:42.05 | 5:24.00 | 75155 | 99454
5 | 22:06.05 | 5:11.70 | 99455 | 122849
6 | 27:18.00 | 6:17.55 | 122850 | 151179
Track 1
Filename C:\EAC\94 East - Minneapolis Genius (1987) [FLAC] {Castle Communications, PLC CLACD 132}\01 - If You Feel Like Dancin'.wav
Pre-gap length 0:00:02.33
Peak level 100.0 %
Extraction speed 3.8 X
Track quality 100.0 %
Test CRC 8C060D90
Copy CRC 8C060D90
Accurately ripped (confidence 2) [04E6C63A] (AR v2)
Copy OK
Track 2
Filename C:\EAC\94 East - Minneapolis Genius (1987) [FLAC] {Castle Communications, PLC CLACD 132}\02 - Lovin' Cup.wav
Pre-gap length 0:00:02.05
Peak level 73.4 %
Extraction speed 3.4 X
Track quality 99.9 %
Test CRC A0E66791
Copy CRC A0E66791
Accurately ripped (confidence 2) [9A39A7AC] (AR v2)
Copy OK
Track 3
Filename C:\EAC\94 East - Minneapolis Genius (1987) [FLAC] {Castle Communications, PLC CLACD 132}\03 - Games.wav
Pre-gap length 0:00:02.30
Peak level 91.2 %
Extraction speed 4.6 X
Track quality 100.0 %
Test CRC 9DBAC3C7
Copy CRC 9DBAC3C7
Accurately ripped (confidence 2) [5C54D0AD] (AR v2)
Copy OK
Track 4
Filename C:\EAC\94 East - Minneapolis Genius (1987) [FLAC] {Castle Communications, PLC CLACD 132}\04 - Just Another Sucker.wav
Pre-gap length 0:00:02.55
Peak level 88.9 %
Extraction speed 4.3 X
Track quality 99.9 %
Test CRC CC17D8EE
Copy CRC CC17D8EE
Accurately ripped (confidence 2) [F9163FE7] (AR v2)
Copy OK
Track 5
Filename C:\EAC\94 East - Minneapolis Genius (1987) [FLAC] {Castle Communications, PLC CLACD 132}\05 - Dance To The Music Of The World.wav
Pre-gap length 0:00:02.50
Peak level 79.9 %
Extraction speed 5.4 X
Track quality 100.0 %
Test CRC 88CD1771
Copy CRC 88CD1771
Accurately ripped (confidence 2) [8685E017] (AR v2)
Copy OK
Track 6
Filename C:\EAC\94 East - Minneapolis Genius (1987) [FLAC] {Castle Communications, PLC CLACD 132}\06 - One Man Jam.wav
Pre-gap length 0:00:02.67
Peak level 94.6 %
Extraction speed 5.9 X
Track quality 100.0 %
Test CRC 3F97D2C9
Copy CRC 3F97D2C9
Accurately ripped (confidence 2) [19D7E76A] (AR v2)
Copy OK
All tracks accurately ripped
No errors occurred
End of status report
==== Log checksum B1A0C635C67BA1544ADFBAAA87BB9B6A0E75DB58BDEF2C1C16939BFF3B2FC811 ====
 
Содержание индексной карты (.CUE)
REM GENRE Funk
REM DATE 1987
REM DISCID 3407DF06
REM COMMENT "ExactAudioCopy v1.0b3"
PERFORMER "94 East"
TITLE "Minneapolis Genius"
FILE "01 - If You Feel Like Dancin'.wav" WAVE
TRACK 01 AUDIO
TITLE "If You Feel Like Dancin'"
PERFORMER "94 East"
PREGAP 00:00:33
INDEX 01 00:00:00
TRACK 02 AUDIO
TITLE "Lovin' Cup"
PERFORMER "94 East"
INDEX 00 07:11:55
FILE "02 - Lovin' Cup.wav" WAVE
INDEX 01 00:00:00
TRACK 03 AUDIO
TITLE "Games"
PERFORMER "94 East"
INDEX 00 04:21:42
FILE "03 - Games.wav" WAVE
INDEX 01 00:00:00
TRACK 04 AUDIO
TITLE "Just Another Sucker"
PERFORMER "94 East"
INDEX 00 05:01:10
FILE "04 - Just Another Sucker.wav" WAVE
INDEX 01 00:00:00
TRACK 05 AUDIO
TITLE "Dance To The Music Of The World"
PERFORMER "94 East"
INDEX 00 05:21:25
FILE "05 - Dance To The Music Of The World.wav" WAVE
INDEX 01 00:00:00
TRACK 06 AUDIO
TITLE "One Man Jam"
PERFORMER "94 East"
INDEX 00 05:09:03
FILE "06 - One Man Jam.wav" WAVE
INDEX 01 00:00:00
Приватный:
Нет (DHT включён)
Размер:
278.24 Мб (291,757,915 байт) » файлов: 15
Участники:
0 раздают, 0 качают (0 участников всего)
Внешние участники:
1 раздают, 0 качают (1 участников всего) [ Обновить ]
Есть вопросы - пишите личное сообщение пользователю M0p94ok.
12:07
49
Нет комментариев. Ваш будет первым!