Поиск

(Soul-Jazz, Afro-Cuban Jazz) [CD] Infinite Spirit Music - Live Without Fear - 1979 (2014 Japan Mini-LP Edition), FLAC (tracks+.cue), lossless

(Soul-Jazz, Afro-Cuban Jazz) [CD] Infinite Spirit Music - Live Without Fear - 1979 (2014 Japan Mini-LP Edition), FLAC (tracks+.cue), lossless
Треклист:
Infinite Spirit Music - Live Without Fear
Жанр: Soul-Jazz, Afro-Cuban Jazz
Носитель: CD
Страна-производитель диска (релиза): Япония
Год издания: 2014
Издатель (лейбл): SHOUT! Productions (Deep Jazz Reality)
Номер по каталогу: SHOUT-277
Страна исполнителя (группы): США
Аудиокодек: FLAC (*.flac)
Тип рипа: tracks+.cue
Битрейт аудио: lossless
Продолжительность: 52:28
Источник (релизер): flossity (what)
Наличие сканов в содержимом раздачи: нет
Треклист:
01. Children's Song (Huff-Adebayo) - 03:45
02. Ritual (Huff-Adebayo) - 04:31
03. Bright Tune (Huff-Adebayo) - 13:24
04. Father Spirit, Mother Love (Huff-Adebayo) - 05:15
05. Rasta (Huff-Adebayo) - 13:48
06. Soul Flower (Huff-Adebayo) - 00:57
07. Live Without Fear (Huff-Adebayo) - 10:48
Состав:
Mchaka Uba - bass
Aye Aton - percussion
Ka T'Etta Aton - vocals
Kahil El Zabar - vocals, conga drums
Ibo - conga drums
"Light" Henry Huff - saxophone
Soji Adebayo - piano
Recorded at Soto Studios, Evanston, IL on May 31, 1979.
 
Лог создания рипа
X Lossless Decoder version 20141129 (148.1)
XLD extraction logfile from 2015-02-28 17:48:31 -0800
Infinite Spirit Music / Live Without Fear
Used drive : TSSTcorp BDDVDW SE-506AB (revision TS01)
Media type : Pressed CD
Ripper mode : XLD Secure Ripper
Disable audio cache : OK for the drive with a cache less than 1375KiB
Make use of C2 pointers : NO
Read offset correction : 6
Max retry count : 100
Gap status : Analyzed, Appended (except HTOA)
TOC of the extracted CD
Track | Start | Length | Start sector | End sector
---------------------------------------------------------
1 | 00:00:00 | 03:45:29 | 0 | 16903
2 | 03:45:29 | 04:31:24 | 16904 | 37252
3 | 08:16:53 | 13:23:51 | 37253 | 97528
4 | 21:40:29 | 05:14:47 | 97529 | 121125
5 | 26:55:01 | 13:47:44 | 121126 | 183194
6 | 40:42:45 | 00:57:08 | 183195 | 187477
7 | 41:39:53 | 10:48:28 | 187478 | 236105
AccurateRip Summary
Disc not found in AccurateRip DB.
All Tracks
Album gain : -6.22 dB
Peak : 0.999939
Statistics
Read error : 0
Jitter error (maybe fixed) : 2
Retry sector count : 231
Damaged sector count : 0
Track 01
Filename : /Applications/Rips/Infinite Spirit Music - Live Without Fear (1980) [FLAC]/01 - Children's Song.flac
Pre-gap length : 00:02:00
Track gain : -6.20 dB
Peak : 0.944061
CRC32 hash (test run) : 4EF2BBEF
CRC32 hash : 4EF2BBEF
CRC32 hash (skip zero) : 0F538BAD
AccurateRip v1 signature : DEF0E340
AccurateRip v2 signature : D096AF75
->Track not present in AccurateRip database.
Statistics
Read error : 0
Jitter error (maybe fixed) : 0
Retry sector count : 0
Damaged sector count : 0
Track 02
Filename : /Applications/Rips/Infinite Spirit Music - Live Without Fear (1980) [FLAC]/02 - Ritual.flac
Track gain : -6.23 dB
Peak : 0.944061
CRC32 hash (test run) : 3568E73E
CRC32 hash : 3568E73E
CRC32 hash (skip zero) : 64ED2E4F
AccurateRip v1 signature : 30C8A80E
AccurateRip v2 signature : 78597AD6
->Track not present in AccurateRip database.
Statistics
Read error : 0
Jitter error (maybe fixed) : 0
Retry sector count : 0
Damaged sector count : 0
Track 03
Filename : /Applications/Rips/Infinite Spirit Music - Live Without Fear (1980) [FLAC]/03 - Bright Tune.flac
Track gain : -5.68 dB
Peak : 0.944061
CRC32 hash (test run) : B3DD8961
CRC32 hash : B3DD8961
CRC32 hash (skip zero) : EC3E9415
AccurateRip v1 signature : 8745FFFC
AccurateRip v2 signature : 9CEBFE1C
->Track not present in AccurateRip database.
Statistics
Read error : 0
Jitter error (maybe fixed) : 0
Retry sector count : 79
Damaged sector count : 0
Track 04
Filename : /Applications/Rips/Infinite Spirit Music - Live Without Fear (1980) [FLAC]/04 - Father Spirit, Mother Love.flac
Track gain : -5.20 dB
Peak : 0.944061
CRC32 hash (test run) : 4AAE38DF
CRC32 hash : 4AAE38DF
CRC32 hash (skip zero) : B986AC01
AccurateRip v1 signature : 5C6289B7
AccurateRip v2 signature : C9E979F5
->Track not present in AccurateRip database.
Statistics
Read error : 0
Jitter error (maybe fixed) : 0
Retry sector count : 0
Damaged sector count : 0
Track 05
Filename : /Applications/Rips/Infinite Spirit Music - Live Without Fear (1980) [FLAC]/05 - Rasta.flac
Track gain : -6.33 dB
Peak : 0.999939
CRC32 hash (test run) : F38C7159
CRC32 hash : F38C7159
CRC32 hash (skip zero) : F7CD99D4
AccurateRip v1 signature : 5355F4B0
AccurateRip v2 signature : 2538C69C
->Track not present in AccurateRip database.
Statistics
Read error : 0
Jitter error (maybe fixed) : 0
Retry sector count : 0
Damaged sector count : 0
Track 06
Filename : /Applications/Rips/Infinite Spirit Music - Live Without Fear (1980) [FLAC]/06 - Soul Flower.flac
Track gain : -3.48 dB
Peak : 0.841370
CRC32 hash (test run) : 6DF2C8E3
CRC32 hash : 6DF2C8E3
CRC32 hash (skip zero) : 61DE24FD
AccurateRip v1 signature : 3D92A50C
AccurateRip v2 signature : 511E6DE8
->Track not present in AccurateRip database.
Statistics
Read error : 0
Jitter error (maybe fixed) : 0
Retry sector count : 0
Damaged sector count : 0
Track 07
Filename : /Applications/Rips/Infinite Spirit Music - Live Without Fear (1980) [FLAC]/07 - Live Without Fear.flac
Track gain : -6.80 dB
Peak : 0.944061
CRC32 hash (test run) : 5FC31FDD
CRC32 hash : 5FC31FDD
CRC32 hash (skip zero) : 43A9DB39
AccurateRip v1 signature : 80BD877A
AccurateRip v2 signature : EA46A31D
->Track not present in AccurateRip database.
Statistics
Read error : 0
Jitter error (maybe fixed) : 2
Retry sector count : 152
Damaged sector count : 0
No errors occurred
End of status report
-----BEGIN XLD SIGNATURE-----
95.JU5XFa5SHQSa9vO0g4y5LBAxcMdOF3vtRZvQX6a22xhoqv1XHxPfkgUoHifojCHtb_rZTVO6r2d7rgPru8bJtCWbrXCMVDw832Pa
-----END XLD SIGNATURE-----
 
Содержание индексной карты (.CUE)
TITLE "Live Without Fear"
PERFORMER "Infinite Spirit Music"
CATALOG 4571225532776
REM GENRE "Jazz"
REM DATE "1979"
REM DISCID 4D0C4C07
REM REPLAYGAIN_ALBUM_GAIN -6.22 dB
REM REPLAYGAIN_ALBUM_PEAK 0.999939
FILE "01 - Children's Song.flac" WAVE
TRACK 01 AUDIO
TITLE "Children's Song"
REM REPLAYGAIN_TRACK_GAIN -6.20 dB
REM REPLAYGAIN_TRACK_PEAK 0.944061
INDEX 01 00:00:00
FILE "02 - Ritual.flac" WAVE
TRACK 02 AUDIO
TITLE "Ritual"
REM REPLAYGAIN_TRACK_GAIN -6.23 dB
REM REPLAYGAIN_TRACK_PEAK 0.944061
INDEX 01 00:00:00
FILE "03 - Bright Tune.flac" WAVE
TRACK 03 AUDIO
TITLE "Bright Tune"
REM REPLAYGAIN_TRACK_GAIN -5.68 dB
REM REPLAYGAIN_TRACK_PEAK 0.944061
INDEX 01 00:00:00
FILE "04 - Father Spirit, Mother Love.flac" WAVE
TRACK 04 AUDIO
TITLE "Father Spirit, Mother Love"
REM REPLAYGAIN_TRACK_GAIN -5.20 dB
REM REPLAYGAIN_TRACK_PEAK 0.944061
INDEX 01 00:00:00
FILE "05 - Rasta.flac" WAVE
TRACK 05 AUDIO
TITLE "Rasta"
REM REPLAYGAIN_TRACK_GAIN -6.33 dB
REM REPLAYGAIN_TRACK_PEAK 0.999939
INDEX 01 00:00:00
FILE "06 - Soul Flower.flac" WAVE
TRACK 06 AUDIO
TITLE "Soul Flower"
REM REPLAYGAIN_TRACK_GAIN -3.48 dB
REM REPLAYGAIN_TRACK_PEAK 0.841370
INDEX 01 00:00:00
FILE "07 - Live Without Fear.flac" WAVE
TRACK 07 AUDIO
TITLE "Live Without Fear"
REM REPLAYGAIN_TRACK_GAIN -6.80 dB
REM REPLAYGAIN_TRACK_PEAK 0.944061
INDEX 01 00:00:00
 
Об альбоме (сборнике)
Beautifully spiritual work from this obscure Chicago group from the late 70s – an AACM ensemble, and quite possibly one of the most soulful we've ever heard! There's a really spare, earthy approach to the work here – one that uses percussion, piano, and saxes from Light Henry Huff – plus beautiful male and female vocals, in a range of spare tunes that build up from the bottom, and flow out with joy and life. The album's not nearly as "out" as you'd expect, given its AACM roots – and has a feeling that's much more in the spirit of groups like Oneness Of Juju, The Pyramids, or Descendents Of Mike & Phoebe – mixing righteous solo passages with a well-conceived approach to the music that holds together wonderfully throughout. Kahil El Zabar is in the group on congas and vocals, and titles include "Soul Flower", "Rasta", "Live Without Fear", "Bright Tune", "Father Spirit Mother Love", and "Children's Song".
18:31
279
Нет комментариев. Ваш будет первым!