Поиск

(Crossover Jazz, Fusion, Latin Jazz) [CD] Deodato - In Concert: Live at Felt Forum - 1973 (1989), FLAC (tracks+.cue), lossless

(Crossover Jazz, Fusion, Latin Jazz) [CD] Deodato - In Concert: Live at Felt Forum - 1973 (1989), FLAC (tracks+.cue), lossless
Deodato - In Concert: Live at Felt Forum
Жанр: Crossover Jazz, Fusion, Latin Jazz
Носитель: CD
Страна-производитель диска (релиза): США
Год издания: 1989
Издатель (лейбл): CBS
Номер по каталогу: ZK 45221
Аудиокодек: FLAC (*.flac)
Тип рипа: tracks+.cue
Битрейт аудио: lossless
Продолжительность: 56:34
Источник (релизер): Cardinals (what)
Наличие сканов в содержимом раздачи: да
Треклист:
01. Do It Again (Becker-Fagen) - 6:37
02. September 13 (Deodato-Cobham) - 7:26
03. Baubles, Bangles and Beads (Wright-Forrest, after A.Borodin) - 4:44
04. Whirlwinds (Deodato) - 8:41
05. Spirit of Summer (Deodato) - 5:31
06. Skyscraper (Deodato) - 12:31
07. Also Sprach Zarathustra (Strauss-Deodato) - 11:04
Состав:
Eumir Deodato - keyboards
John Giulino - electric bass
John Tropea - guitar
Rick Marotta - drums
Rubens Bassini - congas
Gilmore Degap - percussion
Joe Temperley - baritone saxophone
Burt Collins, Joe Shepley - trumpets
Garnett Brown - trombone
Recorded live at New York's Felt Forum on April 20, 1973.
 
Лог создания рипа
Exact Audio Copy V1.0 beta 3 from 29. August 2011
EAC extraction logfile from 26. April 2015, 20:05
Deodato / In Concert - Live At Felt Forum
Used drive : TSSTcorpCDDVDW SH-S223F Adapter: 1 ID: 0
Read mode : Secure
Utilize accurate stream : Yes
Defeat audio cache : Yes
Make use of C2 pointers : No
Read offset correction : 6
Overread into Lead-In and Lead-Out : No
Fill up missing offset samples with silence : Yes
Delete leading and trailing silent blocks : No
Null samples used in CRC calculations : Yes
Used interface : Native Win32 interface for Win NT & 2000
Gap handling : Appended to previous track
Used output format : User Defined Encoder
Selected bitrate : 1024 kBit/s
Quality : High
Add ID3 tag : No
Command line compressor : C:\Program Files (x86)\Exact Audio Copy\Flac\flac.exe
Additional command line options : -8 -V -T "ARTIST=%artist%" -T "TITLE=%title%" -T "ALBUM=%albumtitle%" -T "DATE=%year%" -T "TRACKNUMBER=%tracknr%" -T "TOTALTRACKS=%numtracks%" -T "GENRE=%genre%" -T "ALBUMARTIST=%albumartist%" -T "ALBUM ARTIST=%albumartist%" -T "COMMENT=EAC Secure Mode, Test & Copy, AccurateRip, FLAC -8" %source%
TOC of the extracted CD
Track | Start | Length | Start sector | End sector
---------------------------------------------------------
1 | 0:00.00 | 6:37.25 | 0 | 29799
2 | 6:37.25 | 7:26.22 | 29800 | 63271
3 | 14:03.47 | 4:44.13 | 63272 | 84584
4 | 18:47.60 | 8:40.50 | 84585 | 123634
5 | 27:28.35 | 5:31.37 | 123635 | 148496
6 | 32:59.72 | 12:31.15 | 148497 | 204836
7 | 45:31.12 | 11:03.38 | 204837 | 254599
Track 1
Filename F:\What CD Audio\Deodato - In Concert - Live At Felt Forum (1974) [FLAC] {CBS ZK 45221}\01 - Do It Again.wav
Pre-gap length 0:00:02.00
Peak level 100.0 %
Extraction speed 4.8 X
Track quality 100.0 %
Test CRC 4BD4149E
Copy CRC 4BD4149E
Accurately ripped (confidence 1) [03281EC6] (AR v2)
Copy OK
Track 2
Filename F:\What CD Audio\Deodato - In Concert - Live At Felt Forum (1974) [FLAC] {CBS ZK 45221}\02 - September 13.wav
Peak level 100.0 %
Extraction speed 5.7 X
Track quality 100.0 %
Test CRC 2CCC836E
Copy CRC 2CCC836E
Accurately ripped (confidence 1) [D9C774FB] (AR v2)
Copy OK
Track 3
Filename F:\What CD Audio\Deodato - In Concert - Live At Felt Forum (1974) [FLAC] {CBS ZK 45221}\03 - Baubles, Bangles And Beads.wav
Peak level 100.0 %
Extraction speed 4.9 X
Track quality 99.9 %
Test CRC 3D91E0BA
Copy CRC 3D91E0BA
Accurately ripped (confidence 1) [284896BC] (AR v2)
Copy OK
Track 4
Filename F:\What CD Audio\Deodato - In Concert - Live At Felt Forum (1974) [FLAC] {CBS ZK 45221}\04 - Whirlwinds.wav
Peak level 100.0 %
Extraction speed 7.0 X
Track quality 100.0 %
Test CRC 85058958
Copy CRC 85058958
Accurately ripped (confidence 1) [8882F39F] (AR v2)
Copy OK
Track 5
Filename F:\What CD Audio\Deodato - In Concert - Live At Felt Forum (1974) [FLAC] {CBS ZK 45221}\05 - Spirit Of Summer.wav
Peak level 75.8 %
Extraction speed 7.4 X
Track quality 100.0 %
Test CRC B2B98D5A
Copy CRC B2B98D5A
Accurately ripped (confidence 1) [E8290C4B] (AR v2)
Copy OK
Track 6
Filename F:\What CD Audio\Deodato - In Concert - Live At Felt Forum (1974) [FLAC] {CBS ZK 45221}\06 - Skyscraper.wav
Peak level 100.0 %
Extraction speed 7.3 X
Track quality 99.9 %
Test CRC E1FA4E0C
Copy CRC E1FA4E0C
Accurately ripped (confidence 1) [8FE9DC22] (AR v2)
Copy OK
Track 7
Filename F:\What CD Audio\Deodato - In Concert - Live At Felt Forum (1974) [FLAC] {CBS ZK 45221}\07 - Also Sprach Zarathustra.wav
Peak level 100.0 %
Extraction speed 8.4 X
Track quality 99.9 %
Test CRC 07F82214
Copy CRC 07F82214
Accurately ripped (confidence 1) [A4430362] (AR v2)
Copy OK
All tracks accurately ripped
No errors occurred
End of status report
==== Log checksum EC65C5E41BFF48A7CB760F404FE30AF90A01BFD320866271416FB3833012D1E1 ====
 
Содержание индексной карты (.CUE)
REM GENRE Jazz
REM DATE 1973
REM DISCID 630D4207
REM COMMENT "ExactAudioCopy v1.0b3"
PERFORMER "Deodato"
TITLE "In Concert: Live at Felt Forum"
FILE "01 - Do It Again.wav" WAVE
TRACK 01 AUDIO
TITLE "Do It Again"
PERFORMER "Deodato"
INDEX 01 00:00:00
FILE "02 - September 13.wav" WAVE
TRACK 02 AUDIO
TITLE "September 13"
PERFORMER "Deodato"
INDEX 01 00:00:00
FILE "03 - Baubles, Bangles and Beads.wav" WAVE
TRACK 03 AUDIO
TITLE "Baubles, Bangles and Beads"
PERFORMER "Deodato"
INDEX 01 00:00:00
FILE "04 - Whirlwinds.wav" WAVE
TRACK 04 AUDIO
TITLE "Whirlwinds"
PERFORMER "Deodato"
INDEX 01 00:00:00
FILE "05 - Spirit of Summer.wav" WAVE
TRACK 05 AUDIO
TITLE "Spirit of Summer"
PERFORMER "Deodato"
INDEX 01 00:00:00
FILE "06 - Skyscraper.wav" WAVE
TRACK 06 AUDIO
TITLE "Skyscraper"
PERFORMER "Deodato"
INDEX 01 00:00:00
FILE "07 - Also Sprach Zarathustra.wav" WAVE
TRACK 07 AUDIO
TITLE "Also Sprach Zarathustra"
PERFORMER "Deodato"
INDEX 01 00:00:00
 
Отчет CUETools
[CUETools log; Date: 30.04.2015 0:11:20; Version: 2.1.5]
[CTDB TOCID: 7VboUBwAssITrUvILwvGHjXjyIM-] found.
Track | CTDB Status
1 | (3/3) Accurately ripped
2 | (3/3) Accurately ripped
3 | (3/3) Accurately ripped
4 | (3/3) Accurately ripped
5 | (3/3) Accurately ripped
6 | (3/3) Accurately ripped
7 | (3/3) Accurately ripped
[AccurateRip ID: 000ddfaa-0054f455-630d4207] found.
Track [ CRC | V2 ] Status
01 [fd99776a|03281ec6] (0+1/1) Accurately ripped
02 [b594ae8f|d9c774fb] (0+1/1) Accurately ripped
03 [e524eda8|284896bc] (0+1/1) Accurately ripped
04 [733310a5|8882f39f] (0+1/1) Accurately ripped
05 [60290736|e8290c4b] (0+1/1) Accurately ripped
06 [8cf042a0|8fe9dc22] (0+1/1) Accurately ripped
07 [92336e26|a4430362] (0+1/1) Accurately ripped
Track Peak [ CRC32 ] [W/O NULL] [ LOG ]
-- 100,0 [46710DC0] [59D3F930]
01 100,0 [4BD4149E] [0820497F] CRC32
02 100,0 [2CCC836E] [233415BC] CRC32
03 100,0 [3D91E0BA] [8AD4C725] CRC32
04 100,0 [85058958] [289B5015] CRC32
05 75,8 [B2B98D5A] [829763B0] CRC32
06 100,0 [E1FA4E0C] [64C12533] CRC32
07 100,0 [07F82214] [C5AAEFEC] CRC32
 
Review by Richard S. Ginell
Recorded live in the Felt Forum of New York City's Madison Square Garden in the wake of Deodato's massive 2001: A Space Odyssey hit, this album has a fairly confusing history. Only three selections, "Do It Again," "Spirit of Summer," and "Tropea" were released on the original slapped-together LP In Concert, and these were combined with Airto Moreira's "Parana" and "Branches," which were recorded at the same concert. In the CD-era, the LP was split up; Deodato's tracks were combined with four unreleased tunes from the concert, giving the CD-buyer 35 more minutes of music, while the two Airto tracks were placed on The Best of Airto. The concert wasn't too eventful from the Deodato fan's point of view; his combo competently grooves on, John Tropea provides a tough rock edge, the brass section sounds overloaded and unintegrated in a concert setting, and Bob James adds unnecessary string charts later. The additional CD tracks are reprises of "2001," "Baubles, Bangles and Beads," and "September 13" from Prelude and "Skyscrapers" from Deodato 2 -- which were probably considered too redundant for release in 1974. LP fans will enjoy the Airto tracks, for they are, frankly, more exotically original and invigorating than those of his fellow Brazilians. [CTI remastered the 1974 concert for CD.]
18:31
306
Нет комментариев. Ваш будет первым!