Поиск

(Soul, Funk, Jazz) [CD] Boscoe - Boscoe (1973) - 2007, APE (tracks+.cue), lossless

(Soul, Funk, Jazz) [CD] Boscoe - Boscoe (1973) - 2007, APE (tracks+.cue), lossless
Треклист:
Boscoe / Boscoe (1973)
Жанр: Soul, Funk, Jazz
Носитель: CD
Год издания: 2007
Издатель (лейбл): Numero Group
Аудиокодек: APE (*.ape)
Тип рипа: tracks+.cue
Битрейт аудио: lossless
Продолжительность: 00:47:46
Источник (релизер): my CD
Наличие сканов в содержимом раздачи: да
Треклист:
01. Introduction
02. Writin' on the Wall
03. He Keeps You
04. We Ain't Free
05. If I Had My Way
06. I'm What You Need
07. Money Won't Save You
08. Now and Den
 
Лог создания рипа
Exact Audio Copy V1.1 from 23. June 2015
EAC extraction logfile from 14. July 2016, 13:42
Boscoe / Boscoe
Used drive : MATSHITADVD-RAM UJ8E2 S Adapter: 1 ID: 0
Read mode : Secure
Utilize accurate stream : Yes
Defeat audio cache : Yes
Make use of C2 pointers : No
Read offset correction : 103
Overread into Lead-In and Lead-Out : No
Fill up missing offset samples with silence : Yes
Delete leading and trailing silent blocks : No
Null samples used in CRC calculations : Yes
Used interface : Native Win32 interface for Win NT & 2000
Gap handling : Appended to previous track
Used output format : User Defined Encoder
Selected bitrate : 1024 kBit/s
Quality : High
Add ID3 tag : No
Command line compressor : C:\Program Files (x86)\Exact Audio Copy\wapet\wapet.exe
Additional command line options : %dest% -t "Artist=%artist%" -t "Title=%title%" -t "Album=%albumtitle%" -t "Year=%year%" -t "Track=%tracknr%" -t "Genre=%genre%" "C:\Program Files (x86)\Monkey's Audio\MAC.exe" %source% %dest% -c2000
TOC of the extracted CD
Track | Start | Length | Start sector | End sector
---------------------------------------------------------
1 | 0:00.00 | 4:38.43 | 0 | 20892
2 | 4:38.43 | 8:03.21 | 20893 | 57138
3 | 12:41.64 | 4:25.18 | 57139 | 77031
4 | 17:07.07 | 8:02.02 | 77032 | 113183
5 | 25:09.09 | 4:24.00 | 113184 | 132983
6 | 29:33.09 | 4:11.72 | 132984 | 151880
7 | 33:45.06 | 3:39.60 | 151881 | 168365
8 | 37:24.66 | 10:21.06 | 168366 | 214946
Track 1
Filename E:\Boscoe - Boscoe (1973, 2007, Numero) [APE]\01 - Introduction.wav
Pre-gap length 0:00:02.00
Peak level 99.7 %
Extraction speed 1.9 X
Track quality 99.9 %
Copy CRC 857D589C
Accurately ripped (confidence 5) [5B5D497A] (AR v2)
Copy OK
Track 2
Filename E:\Boscoe - Boscoe (1973, 2007, Numero) [APE]\02 - Writin' On The Wall.wav
Peak level 98.3 %
Extraction speed 3.0 X
Track quality 100.0 %
Copy CRC 2C003695
Accurately ripped (confidence 5) [9C0FDBA1] (AR v2)
Copy OK
Track 3
Filename E:\Boscoe - Boscoe (1973, 2007, Numero) [APE]\03 - He Keeps You.wav
Pre-gap length 0:00:03.20
Peak level 98.8 %
Extraction speed 2.5 X
Track quality 99.9 %
Copy CRC 4F339260
Accurately ripped (confidence 5) [35351F6B] (AR v2)
Copy OK
Track 4
Filename E:\Boscoe - Boscoe (1973, 2007, Numero) [APE]\04 - We Ain't Free.wav
Pre-gap length 0:00:02.89
Peak level 98.8 %
Extraction speed 3.2 X
Track quality 99.9 %
Copy CRC 711968D8
Accurately ripped (confidence 5) [1AA6309E] (AR v2)
Copy OK
Track 5
Filename E:\Boscoe - Boscoe (1973, 2007, Numero) [APE]\05 - If I Had My Way.wav
Pre-gap length 0:00:02.25
Peak level 98.8 %
Extraction speed 3.6 X
Track quality 100.0 %
Copy CRC A1F538F5
Accurately ripped (confidence 5) [396D6AA1] (AR v2)
Copy OK
Track 6
Filename E:\Boscoe - Boscoe (1973, 2007, Numero) [APE]\06 - I'm What You Need.wav
Pre-gap length 0:00:02.72
Peak level 98.7 %
Extraction speed 3.1 X
Track quality 99.9 %
Copy CRC 75BBA5A1
Accurately ripped (confidence 5) [53660A60] (AR v2)
Copy OK
Track 7
Filename E:\Boscoe - Boscoe (1973, 2007, Numero) [APE]\07 - Money Won't Save You.wav
Pre-gap length 0:00:03.24
Peak level 98.6 %
Extraction speed 3.9 X
Track quality 100.0 %
Copy CRC DDF27BA0
Accurately ripped (confidence 5) [4E9492C3] (AR v2)
Copy OK
Track 8
Filename E:\Boscoe - Boscoe (1973, 2007, Numero) [APE]\08 - Now And Den.wav
Pre-gap length 0:00:02.76
Peak level 98.8 %
Extraction speed 4.8 X
Track quality 100.0 %
Copy CRC 1DBAF341
Accurately ripped (confidence 5) [8306D63E] (AR v2)
Copy OK
All tracks accurately ripped
No errors occurred
End of status report
---- CUETools DB Plugin V2.1.6
[CTDB TOCID: h07CkHYrLXuH6GfNVqL18OsWDnw-] found
Submit result: already submitted
Track | CTDB Status
1 | (7/7) Accurately ripped
2 | (7/7) Accurately ripped
3 | (7/7) Accurately ripped
4 | (7/7) Accurately ripped
5 | (7/7) Accurately ripped
6 | (7/7) Accurately ripped
7 | (7/7) Accurately ripped
8 | (7/7) Accurately ripped
==== Log checksum 5CD7F17A33B08B86AB63BDF5E9BA2EB9C47DC46D04497AB01F5A6D7F30575CFF ====
 
Содержание индексной карты (.CUE)
REM GENRE Soul
REM DATE 2007
REM DISCID 5D0B3108
REM COMMENT "ExactAudioCopy v1.1"
FILE "01 - Introduction.wav" WAVE
TRACK 01 AUDIO
INDEX 01 00:00:00
FILE "02 - Writin' On The Wall.wav" WAVE
TRACK 02 AUDIO
INDEX 01 00:00:00
TRACK 03 AUDIO
INDEX 00 08:00:06
FILE "03 - He Keeps You.wav" WAVE
INDEX 01 00:00:00
TRACK 04 AUDIO
INDEX 00 04:22:26
FILE "04 - We Ain't Free.wav" WAVE
INDEX 01 00:00:00
TRACK 05 AUDIO
INDEX 00 07:59:58
FILE "05 - If I Had My Way.wav" WAVE
INDEX 01 00:00:00
TRACK 06 AUDIO
INDEX 00 04:21:21
FILE "06 - I'm What You Need.wav" WAVE
INDEX 01 00:00:00
TRACK 07 AUDIO
INDEX 00 04:08:54
FILE "07 - Money Won't Save You.wav" WAVE
INDEX 01 00:00:00
TRACK 08 AUDIO
INDEX 00 03:37:03
FILE "08 - Now And Den.wav" WAVE
INDEX 01 00:00:00
 
Об исполнителе (группе)
Artist Biography by Mark Deming
Though little known outside of their hometown of Chicago, the short-lived soul-jazz ensemble Boscoe were a musical bridge between the Windy City's R&B scene and the politically conscious and musically adventurous work of Sun Ra and the Artistic Heritage Ensemble. Boscoe consisted of six young men who had cut their teeth in Chicago's blues and R&B clubs -- James Rice on guitar, Darryl Johnson on sax, Reg Holden on trombone, Harold Warner on trumpet, Ron Harris on bass, and Steve Cobb on drums. Originally known as From the Womb to the Tomb, Boscoe were a regular attraction at Chicago's Green Bunny Lounge and frequently appeared at the High Chaparral, where local heroes such as Syl Johnson, Garland Green, and Tyrone Davis would sit in with the band. Boscoe also backed up a number of vocal acts, including Johnny Moore, Glenda Dove, Little Johnny Williams, and the Sequins. By 1973, Boscoe were playing original music that dealt with the realities of the African-American community, combining funky grooves with tight, expressive horn work, and the group cut a self-titled album featuring seven of its most potent compositions. Not wanting a major record label to dilute their message, Boscoe released their sole album on their own Kingdom of Chad Records label; sales were sparse and the bandmembers parted ways a few years later. However, the Boscoe album somehow became a favorite of Japanese record collectors interested in idiosyncratic funk and soul, and the group's reputation began to filter back to the United States. In 2007, Asterisk, an offshoot of the soul reissue label Numero Group, re-released Boscoe's album, with the disc hailed as a lost classic by critics. Following the breakup of Boscoe, Ron Harris and Steve Cobb played with jazz keyboardist Ramsey Lewis, and Cobb later released an album's worth of songs for the celebration of Kwanzaa, Seven Principles.
Приватный:
Нет (DHT включён)
Размер:
290.09 Мб (304,183,276 байт) » файлов: 16
Участники:
0 раздают, 0 качают (0 участников всего)
Внешние участники:
5 раздают, 2 качают (7 участников всего) [ Обновить ]
No seeders - write personal message to user M0p94ok. Нет сидеров - пишите личное сообщение пользователю M0p94ok.
03:45
94
Нет комментариев. Ваш будет первым!