Поиск

(Funk, Soul) Soulive - Steady Groovin'(The Blue Note Groove Sides) - 2005, FLAC (tracks+.cue), lossless

(Funk, Soul) Soulive - Steady Groovin'(The Blue Note Groove Sides) - 2005, FLAC (tracks+.cue), lossless
Треклист:
Soulive / Steady Groovin'(The Blue Note Groove Sides)
Жанр: Funk, Soul
Страна-производитель диска (релиза): EU
Год издания: 2005
Издатель (лейбл): Blue Note
Номер по каталогу: 7243 56397620
Страна исполнителя (группы): USA
Аудиокодек: FLAC (*.flac)
Тип рипа: tracks+.cue
Битрейт аудио: lossless
Продолжительность: 1:07:16.
Источник (релизер): clustert
Наличие сканов в содержимом раздачи: да
Треклист:
01. One in Seven [0:05:17.65]
02. Flurries [0:05:53.36]
03. El Ron [0:06:00.28]
04. Solid [0:04:52.59]
05. Clap! with Black Thought of The Roots [0:05:23.01]
06. Dig [0:07:57.15]
07. Doin' Something [0:06:46.04]
08. Alkime [0:06:59.45]
09. First Street [0:06:41.29]
10. All Up in It with DJ Spinna [0:06:03.32]
11. Golden Lady [0:05:21.15]
 
Лог создания рипа
Exact Audio Copy V1.0 beta 3 from 29. August 2011
Отчёт EAC об извлечении, выполненном 31. декабря 2014, 22:28
Soulive / Steady Groovin'
Дисковод: ASUS DRW-1814BLT Adapter: 4 ID: 0
Режим чтения : Достоверность
Использование точного потока : Да
Отключение кэша аудио : Да
Использование указателей C2 : Нет
Коррекция смещения при чтении : 6
Способность читать области Lead-in и Lead-out : Нет
Заполнение пропущенных сэмплов тишиной : Да
Удаление блоков с тишиной в начале и конце : Нет
При вычислениях CRC использовались нулевые сэмплы : Да
Интерфейс : Встроенный Win32-интерфейс для Win NT/2000
Обработка зазоров : Добавлено к предыдущему треку
Выходной формат : Пользовательский кодировщик
Выбранный битрейт : 128 kBit/s
Качество : Высокий
Добавление ID3-тега : Нет
Утилита сжатия : C:\Program Files\Exact Audio Copy\Flac\flac.exe
Дополнительные параметры : -V -8 -T "Genre=%genre%" -T "Artist=%artist%" -T "Title=%title%" -T "Album=%albumtitle%" -T "Date=%year%" -T "Tracknumber=%tracknr%" -T "Comment=EAC1.0b2 FLAC -8" %source%
TOC извлечённого CD
Трек | Старт | Длительность | Начальный сектор | Конечный сектор
---------------------------------------------------------------------
1 | 0:00.00 | 5:17.65 | 0 | 23839
2 | 5:17.65 | 5:53.36 | 23840 | 50350
3 | 11:11.26 | 6:00.28 | 50351 | 77378
4 | 17:11.54 | 4:52.59 | 77379 | 99337
5 | 22:04.38 | 5:23.01 | 99338 | 123563
6 | 27:27.39 | 7:57.15 | 123564 | 159353
7 | 35:24.54 | 6:46.04 | 159354 | 189807
8 | 42:10.58 | 6:59.45 | 189808 | 221277
9 | 49:10.28 | 6:41.29 | 221278 | 251381
10 | 55:51.57 | 6:03.32 | 251382 | 278638
11 | 61:55.14 | 5:21.15 | 278639 | 302728
Трек 1
Имя файла R:\Раздача 31\Soulive - 2005 - Steady Groovin' (The Blue Note Groove Sides)\01 One in Seven.wav
Длина предзазора 0:00:02.00
Пиковый уровень 90.5 %
Скорость извлечения 5.3 X
Качество трека 100.0 %
CRC теста 51F964BF
CRC копии 51F964BF
Трек не обнаружен в базе AccurateRip
Копирование... OK
Трек 2
Имя файла R:\Раздача 31\Soulive - 2005 - Steady Groovin' (The Blue Note Groove Sides)\02 Flurries.wav
Пиковый уровень 85.2 %
Скорость извлечения 6.1 X
Качество трека 100.0 %
CRC теста 08EC2B8D
CRC копии 08EC2B8D
Трек не обнаружен в базе AccurateRip
Копирование... OK
Трек 3
Имя файла R:\Раздача 31\Soulive - 2005 - Steady Groovin' (The Blue Note Groove Sides)\03 El Ron.wav
Пиковый уровень 96.4 %
Скорость извлечения 6.8 X
Качество трека 100.0 %
CRC теста AD280CE9
CRC копии AD280CE9
Трек не обнаружен в базе AccurateRip
Копирование... OK
Трек 4
Имя файла R:\Раздача 31\Soulive - 2005 - Steady Groovin' (The Blue Note Groove Sides)\04 Solid.wav
Пиковый уровень 92.9 %
Скорость извлечения 5.4 X
Качество трека 99.9 %
CRC теста 6EC2847D
CRC копии 6EC2847D
Трек не обнаружен в базе AccurateRip
Копирование... OK
Трек 5
Имя файла R:\Раздача 31\Soulive - 2005 - Steady Groovin' (The Blue Note Groove Sides)\05 Clap! with Black Thought of The Roots.wav
Пиковый уровень 99.3 %
Скорость извлечения 5.9 X
Качество трека 99.9 %
CRC теста 71F1F382
CRC копии 71F1F382
Трек не обнаружен в базе AccurateRip
Копирование... OK
Трек 6
Имя файла R:\Раздача 31\Soulive - 2005 - Steady Groovin' (The Blue Note Groove Sides)\06 Dig.wav
Пиковый уровень 94.2 %
Скорость извлечения 8.6 X
Качество трека 100.0 %
CRC теста AE8AB3B8
CRC копии AE8AB3B8
Трек не обнаружен в базе AccurateRip
Копирование... OK
Трек 7
Имя файла R:\Раздача 31\Soulive - 2005 - Steady Groovin' (The Blue Note Groove Sides)\07 Doin' Something.wav
Пиковый уровень 84.9 %
Скорость извлечения 9.0 X
Качество трека 100.0 %
CRC теста 5E9C5807
CRC копии 5E9C5807
Трек не обнаружен в базе AccurateRip
Копирование... OK
Трек 8
Имя файла R:\Раздача 31\Soulive - 2005 - Steady Groovin' (The Blue Note Groove Sides)\08 Alkime.wav
Пиковый уровень 89.4 %
Скорость извлечения 7.5 X
Качество трека 99.9 %
CRC теста B13AC081
CRC копии B13AC081
Трек не обнаружен в базе AccurateRip
Копирование... OK
Трек 9
Имя файла R:\Раздача 31\Soulive - 2005 - Steady Groovin' (The Blue Note Groove Sides)\09 First Street.wav
Пиковый уровень 96.4 %
Скорость извлечения 7.8 X
Качество трека 99.9 %
CRC теста 95B863E5
CRC копии 95B863E5
Трек не обнаружен в базе AccurateRip
Копирование... OK
Трек 10
Имя файла R:\Раздача 31\Soulive - 2005 - Steady Groovin' (The Blue Note Groove Sides)\10 All Up in It with DJ Spinna.wav
Пиковый уровень 90.9 %
Скорость извлечения 10.3 X
Качество трека 100.0 %
CRC теста 7D9870DF
CRC копии 7D9870DF
Трек не обнаружен в базе AccurateRip
Копирование... OK
Трек 11
Имя файла R:\Раздача 31\Soulive - 2005 - Steady Groovin' (The Blue Note Groove Sides)\11 Golden Lady.wav
Пиковый уровень 83.0 %
Скорость извлечения 10.5 X
Качество трека 100.0 %
CRC теста E2D5A49C
CRC копии E2D5A49C
Трек не обнаружен в базе AccurateRip
Копирование... OK
Ни одного трека нет в базе AccurateRip
Ошибок не произошло
Конец отчёта
==== Контрольная сумма отчёта C6B8978E96D611F16E60527F389CD45A40934A5DAA413E4EB41C9C0AFD95EA4E ====
 
Содержание индексной карты (.CUE)
REM GENRE Jazz
REM DATE 2005
REM DISCID 8F0FC40B
REM COMMENT "ExactAudioCopy v1.0b3"
PERFORMER "Soulive"
TITLE "Steady Groovin' "
FILE "01 One in Seven.wav" WAVE
TRACK 01 AUDIO
TITLE "One in Seven"
PERFORMER "Soulive"
INDEX 01 00:00:00
FILE "02 Flurries.wav" WAVE
TRACK 02 AUDIO
TITLE "Flurries"
PERFORMER "Soulive"
INDEX 01 00:00:00
FILE "03 El Ron.wav" WAVE
TRACK 03 AUDIO
TITLE "El Ron"
PERFORMER "Soulive"
INDEX 01 00:00:00
FILE "04 Solid.wav" WAVE
TRACK 04 AUDIO
TITLE "Solid"
PERFORMER "Soulive"
INDEX 01 00:00:00
FILE "05 Clap! with Black Thought of The Roots.wav" WAVE
TRACK 05 AUDIO
TITLE "Clap! with Black Thought of The Roots"
PERFORMER "Soulive"
INDEX 01 00:00:00
FILE "06 Dig.wav" WAVE
TRACK 06 AUDIO
TITLE "Dig"
PERFORMER "Soulive"
INDEX 01 00:00:00
FILE "07 Doin' Something.wav" WAVE
TRACK 07 AUDIO
TITLE "Doin' Something"
PERFORMER "Soulive"
INDEX 01 00:00:00
FILE "08 Alkime.wav" WAVE
TRACK 08 AUDIO
TITLE "Alkime"
PERFORMER "Soulive"
INDEX 01 00:00:00
FILE "09 First Street.wav" WAVE
TRACK 09 AUDIO
TITLE "First Street"
PERFORMER "Soulive"
INDEX 01 00:00:00
FILE "10 All Up in It with DJ Spinna.wav" WAVE
TRACK 10 AUDIO
TITLE "All Up in It with DJ Spinna"
PERFORMER "Soulive"
INDEX 01 00:00:00
FILE "11 Golden Lady.wav" WAVE
TRACK 11 AUDIO
TITLE "Golden Lady"
PERFORMER "Soulive"
INDEX 01 00:00:00
 
Состав
Alan Evans - drums,
Neal Evans - Hammond organ, piano,
Eric Krasno - guitar.
Приватный:
Нет (DHT включён)
Размер:
436.78 Мб (458,000,845 байт) » файлов: 21
Участники:
0 раздают, 0 качают (0 участников всего)
Внешние участники:
3 раздают, 1 качают (4 участников всего) [ Обновить ]
Есть вопросы - пишите личное сообщение пользователю M0p94ok.
03:44
71
Нет комментариев. Ваш будет первым!