Поиск

(Soul, Funk) [CD] Stevie Wonder - Innervisions (1973) - 2012 {AFZ 086}, FLAC (tracks+.cue), lossless

(Soul, Funk) [CD] Stevie Wonder - Innervisions (1973) - 2012 {AFZ 086}, FLAC (tracks+.cue), lossless
Треклист:
Stevie Wonder - Innervisions (1973)
Жанр: Soul, Funk
Носитель: CD
Год издания: 2012
Издатель (лейбл): Audio Fidelity
Номер по каталогу: AFZ 086
Аудиокодек: FLAC (*.flac)
Тип рипа: tracks+.cue
Битрейт аудио: lossless
Продолжительность: 44:17
Rip by JET 1
Наличие сканов в содержимом раздачи: да
Треклист:
01. Too High (4:36)
02. Visions (5:23)
03. Living For The City (7:44)
04. Golden Lady (4:40)
05. Higher Ground (3:42)
06. Jesus Children Of America (4:10)
07. All In Love Is Fair (3:42)
08. Don't You Worry 'Bout A Thing (4:45)
09. He's Misstra Know-It-All (5:36)
 
 
Лог создания рипа
Exact Audio Copy V1.0 beta 3 from 29. August 2011
EAC extraction logfile from 19. June 2015, 17:17
Stevie Wonder / Innervisions 2012 Audio Fidelity
Used drive : ATAPI DVD A DH16A6L-C Adapter: 2 ID: 0
Read mode : Secure
Utilize accurate stream : Yes
Defeat audio cache : Yes
Make use of C2 pointers : No
Read offset correction : 6
Overread into Lead-In and Lead-Out : No
Fill up missing offset samples with silence : Yes
Delete leading and trailing silent blocks : No
Null samples used in CRC calculations : Yes
Used interface : Native Win32 interface for Win NT & 2000
Gap handling : Appended to previous track
Used output format : User Defined Encoder
Selected bitrate : 1024 kBit/s
Quality : High
Add ID3 tag : No
Command line compressor : C:\Program Files\FLAC\flac.exe
Additional command line options : -8 -V -T "ARTIST=%artist%" -T "TITLE=%title%" -T "ALBUM=%albumtitle%" -T "DATE=%year%" -T "TRACKNUMBER=%tracknr%" -T "GENRE=%genre%" -T "PERFORMER=%albuminterpret%" -T "COMPOSER=%composer%" %haslyrics%--tag-from-file=LYRICS="%lyricsfile%"%haslyrics% -T "ALBUMARTIST=%albumartist%" -T "DISCNUMBER=%cdnumber%" -T "TOTALDISCS=%totalcds%" -T "TOTALTRACKS=%numtracks%" -T "COMMENT=%comment%" %source% -o %dest%
TOC of the extracted CD
Track | Start | Length | Start sector | End sector
---------------------------------------------------------
1 | 0:00.00 | 4:36.03 | 0 | 20702
2 | 4:36.03 | 5:22.72 | 20703 | 44924
3 | 9:59.00 | 7:43.42 | 44925 | 79691
4 | 17:42.42 | 4:40.25 | 79692 | 100716
5 | 22:22.67 | 3:41.72 | 100717 | 117363
6 | 26:04.64 | 4:09.69 | 117364 | 136107
7 | 30:14.58 | 3:41.60 | 136108 | 152742
8 | 33:56.43 | 4:44.55 | 152743 | 174097
9 | 38:41.23 | 5:35.47 | 174098 | 199269
Track 1
Filename F:\MUSIC\0\POSTS\Stevie Wonder - Innervisions (1973) [2012 AFZ086]\01 - Too High.wav
Pre-gap length 0:00:02.00
Peak level 100.0 %
Extraction speed 3.3 X
Track quality 100.0 %
Test CRC AC4A13B9
Copy CRC AC4A13B9
Accurately ripped (confidence 39) [D10D97DD] (AR v2)
Copy OK
Track 2
Filename F:\MUSIC\0\POSTS\Stevie Wonder - Innervisions (1973) [2012 AFZ086]\02 - Visions.wav
Peak level 73.6 %
Extraction speed 1.4 X
Track quality 99.7 %
Test CRC 6FC0C3A2
Copy CRC 6FC0C3A2
Accurately ripped (confidence 39) [E343BCF3] (AR v2)
Copy OK
Track 3
Filename F:\MUSIC\0\POSTS\Stevie Wonder - Innervisions (1973) [2012 AFZ086]\03 - Living For The City.wav
Peak level 100.0 %
Extraction speed 3.6 X
Track quality 99.9 %
Test CRC DA096778
Copy CRC DA096778
Accurately ripped (confidence 39) [B5F14414] (AR v2)
Copy OK
Track 4
Filename F:\MUSIC\0\POSTS\Stevie Wonder - Innervisions (1973) [2012 AFZ086]\04 - Golden Lady.wav
Peak level 94.9 %
Extraction speed 4.7 X
Track quality 100.0 %
Test CRC 534FE5F2
Copy CRC 534FE5F2
Accurately ripped (confidence 39) [41B3E652] (AR v2)
Copy OK
Track 5
Filename F:\MUSIC\0\POSTS\Stevie Wonder - Innervisions (1973) [2012 AFZ086]\05 - Higher Ground.wav
Peak level 100.0 %
Extraction speed 3.9 X
Track quality 99.9 %
Test CRC 24FC9992
Copy CRC 24FC9992
Accurately ripped (confidence 39) [7FA63BD2] (AR v2)
Copy OK
Track 6
Filename F:\MUSIC\0\POSTS\Stevie Wonder - Innervisions (1973) [2012 AFZ086]\06 - Jesus Children Of America.wav
Peak level 100.0 %
Extraction speed 4.3 X
Track quality 99.9 %
Test CRC F50F86B8
Copy CRC F50F86B8
Accurately ripped (confidence 39) [7E4DDE61] (AR v2)
Copy OK
Track 7
Filename F:\MUSIC\0\POSTS\Stevie Wonder - Innervisions (1973) [2012 AFZ086]\07 - All In Love Is Fair.wav
Peak level 81.3 %
Extraction speed 2.7 X
Track quality 99.8 %
Test CRC EBFEC608
Copy CRC EBFEC608
Accurately ripped (confidence 39) [E08D0D43] (AR v2)
Copy OK
Track 8
Filename F:\MUSIC\0\POSTS\Stevie Wonder - Innervisions (1973) [2012 AFZ086]\08 - Don't You Worry 'Bout A Thing.wav
Peak level 99.5 %
Extraction speed 5.7 X
Track quality 100.0 %
Test CRC 4538FA81
Copy CRC 4538FA81
Accurately ripped (confidence 39) [D0060611] (AR v2)
Copy OK
Track 9
Filename F:\MUSIC\0\POSTS\Stevie Wonder - Innervisions (1973) [2012 AFZ086]\09 - He's Misstra Know-It-All.wav
Peak level 93.7 %
Extraction speed 3.6 X
Track quality 99.8 %
Test CRC 805D17FB
Copy CRC 805D17FB
Accurately ripped (confidence 39) [4E11BA15] (AR v2)
Copy OK
All tracks accurately ripped
No errors occurred
End of status report
==== Log checksum 0B61DEE4376DCABDA8A4734D386BF4028CE2072628DBE5148D582859C8FF5A56 ====
 
Содержание индексной карты (.CUE)
REM GENRE R&B
REM DATE 1973
REM DISCID 6A0A6009
REM COMMENT "ExactAudioCopy v1.0b3"
PERFORMER "Stevie Wonder"
TITLE "Innervisions 2012 Audio Fidelity"
FILE "01 - Too High.wav" WAVE
TRACK 01 AUDIO
TITLE "Too High"
PERFORMER "Stevie Wonder"
INDEX 01 00:00:00
FILE "02 - Visions.wav" WAVE
TRACK 02 AUDIO
TITLE "Visions"
PERFORMER "Stevie Wonder"
INDEX 01 00:00:00
FILE "03 - Living For The City.wav" WAVE
TRACK 03 AUDIO
TITLE "Living For The City"
PERFORMER "Stevie Wonder"
INDEX 01 00:00:00
FILE "04 - Golden Lady.wav" WAVE
TRACK 04 AUDIO
TITLE "Golden Lady"
PERFORMER "Stevie Wonder"
INDEX 01 00:00:00
FILE "05 - Higher Ground.wav" WAVE
TRACK 05 AUDIO
TITLE "Higher Ground"
PERFORMER "Stevie Wonder"
INDEX 01 00:00:00
FILE "06 - Jesus Children Of America.wav" WAVE
TRACK 06 AUDIO
TITLE "Jesus Children Of America"
PERFORMER "Stevie Wonder"
INDEX 01 00:00:00
FILE "07 - All In Love Is Fair.wav" WAVE
TRACK 07 AUDIO
TITLE "All In Love Is Fair"
PERFORMER "Stevie Wonder"
INDEX 01 00:00:00
FILE "08 - Don't You Worry 'Bout A Thing.wav" WAVE
TRACK 08 AUDIO
TITLE "Don't You Worry 'Bout A Thing"
PERFORMER "Stevie Wonder"
INDEX 01 00:00:00
FILE "09 - He's Misstra Know-It-All.wav" WAVE
TRACK 09 AUDIO
TITLE "He's Misstra Know-It-All"
PERFORMER "Stevie Wonder"
INDEX 01 00:00:00
Приватный:
Нет (DHT включён)
Размер:
477.11 Мб (500,285,427 байт) » файлов: 25
Участники:
0 раздают, 0 качают (0 участников всего)
Внешние участники:
3 раздают, 1 качают (4 участников всего) [ Обновить ]
Есть вопросы - пишите личное сообщение пользователю M0p94ok.
06:33
71
Нет комментариев. Ваш будет первым!