Поиск

(Funk, Soul, Disco, House) [CDM] Anita Ward Vs. Ringo Brothers - Ring My Bell (The Final Mixes) (Maxi CD Single) (Promo) - 2000, FLAC (tracks+.cue), lossless

(Funk, Soul, Disco, House) [CDM] Anita Ward Vs. Ringo Brothers - Ring My Bell (The Final Mixes) (Maxi CD Single) (Promo) - 2000, FLAC (tracks+.cue), lossless
Треклист:
Anita Ward Vs. Ringo Brothers - Ring My Bell
Жанр: Funk, Soul, Disco, House
Носитель: CDM
Страна-производитель диска (релиза): Denmark
Год издания: 2000
Издатель (лейбл): Hypnotic
Номер по каталогу: RINGPRO312
Аудиокодек: FLAC (*.flac)
Тип рипа: tracks+.cue
Битрейт аудио: lossless
Продолжительность: 00:18:48
Источник (релизер): own rip
Наличие сканов в содержимом раздачи: да

1. Anita Ward vs. Ringo Brothers - Ring My Bell [Radio Mix] (3:42)
2. Anita Ward vs. Ringo Brothers - Ring My Bell [Ringo My Bell Mix] (8:04)
3. Anita Ward vs. Ringo Brothers - Ring My Bell [Extended Mix] (7:02)
 
Лог создания рипа
Exact Audio Copy V1.0 beta 3 from 29. August 2011
EAC extraction logfile from 25. January 2014, 20:48
Anita Ward vs. Ringo Brothers / Ring My Bell - The Final Mixes [Maxi - Promo]
Used drive : TSSTcorpCDDVDW SN-208BB Adapter: 0 ID: 1
Read mode : Secure
Utilize accurate stream : Yes
Defeat audio cache : Yes
Make use of C2 pointers : No
Read offset correction : 6
Overread into Lead-In and Lead-Out : No
Fill up missing offset samples with silence : Yes
Delete leading and trailing silent blocks : No
Null samples used in CRC calculations : Yes
Used interface : Native Win32 interface for Win NT & 2000
Gap handling : Appended to previous track
Used output format : User Defined Encoder
Selected bitrate : 1024 kBit/s
Quality : High
Add ID3 tag : No
Command line compressor : C:\Program Files (x86)\Exact Audio Copy\Flac\flac.exe
Additional command line options : -8 -V -T "artist=%artist%" -T "title=%title%" -T "album=%albumtitle%" -T "date=%year%" -T "tracknumber=%tracknr%" -T "genre=%genre%" %source%
TOC of the extracted CD
Track | Start | Length | Start sector | End sector
---------------------------------------------------------
1 | 0:00.00 | 3:42.30 | 0 | 16679
2 | 3:42.30 | 8:04.05 | 16680 | 52984
3 | 11:46.35 | 7:02.13 | 52985 | 84647
Track 1
Filename E:\Torrent\Anita Ward Vs. Ringo Brothers - Ring My Bell (The Final Mixes) (Promo)\01 Ring My Bell [Radio Mix].wav
Pre-gap length 0:00:02.00
Peak level 99.9 %
Extraction speed 1.4 X
Track quality 99.9 %
Test CRC B116FE5F
Copy CRC B116FE5F
Accurately ripped (confidence 1) [7A1CCB63] (AR v2)
Copy OK
Track 2
Filename E:\Torrent\Anita Ward Vs. Ringo Brothers - Ring My Bell (The Final Mixes) (Promo)\02 Ring My Bell [Ringo My Bell Mix].wav
Pre-gap length 0:00:01.50
Peak level 99.9 %
Extraction speed 2.0 X
Track quality 99.9 %
Test CRC F033D88D
Copy CRC F033D88D
Accurately ripped (confidence 1) [92A5C953] (AR v2)
Copy OK
Track 3
Filename E:\Torrent\Anita Ward Vs. Ringo Brothers - Ring My Bell (The Final Mixes) (Promo)\03 Ring My Bell [Extended Mix].wav
Pre-gap length 0:00:02.43
Peak level 99.9 %
Extraction speed 2.4 X
Track quality 100.0 %
Test CRC C4689E42
Copy CRC C4689E42
Accurately ripped (confidence 1) [9DF11D7E] (AR v2)
Copy OK
All tracks accurately ripped
No errors occurred
End of status report
 
Содержание индексной карты (.CUE)
REM GENRE Disco
REM DATE 2000
REM DISCID 19046803
REM COMMENT "ExactAudioCopy v1.0b3"
PERFORMER "Anita Ward vs. Ringo Brothers"
TITLE "Ring My Bell - The Final Mixes [Maxi - Promo]"
FILE "01 Ring My Bell [Radio Mix].wav" WAVE
TRACK 01 AUDIO
TITLE "Ring My Bell [Radio Mix]"
PERFORMER "Anita Ward vs. Ringo Brothers"
ISRC DKABA0000801
INDEX 01 00:00:00
TRACK 02 AUDIO
TITLE "Ring My Bell [Ringo My Bell Mix]"
PERFORMER "Anita Ward vs. Ringo Brothers"
ISRC DKABA0000802
INDEX 00 03:40:55
FILE "02 Ring My Bell [Ringo My Bell Mix].wav" WAVE
INDEX 01 00:00:00
TRACK 03 AUDIO
TITLE "Ring My Bell [Extended Mix]"
PERFORMER "Anita Ward vs. Ringo Brothers"
ISRC DKABA0000804
INDEX 00 08:01:37
FILE "03 Ring My Bell [Extended Mix].wav" WAVE
INDEX 01 00:00:00
Приватный:
Нет (DHT включён)
Размер:
145.66 Мб (152,730,371 байт) » файлов: 11
Участники:
0 раздают, 0 качают (0 участников всего)
Внешние участники:
5 раздают, 1 качают (6 участников всего) [ Обновить ]
Есть вопросы - пишите личное сообщение пользователю M0p94ok.
06:34
57
Нет комментариев. Ваш будет первым!