Поиск

(Soul, Funk) [CD] Rufus Featuring Chaka Khan - Rufusized - 1991 (1974), FLAC (tracks+.cue), lossless

(Soul, Funk) [CD] Rufus Featuring Chaka Khan - Rufusized - 1991 (1974), FLAC (tracks+.cue), lossless
Треклист:
Rufus Featuring Chaka Khan / Rufusized
Жанр: Soul, Funk
Носитель: CD
Год издания: 1991 (1974)
Издатель (лейбл): MCA Records
Номер по каталогу: MCAD-10236
Аудиокодек: FLAC (*.flac)
Тип рипа: tracks+.cue
Битрейт аудио: lossless
Продолжительность: 37:14
Источник (релизер): xbtmusic.org
Наличие сканов в содержимом раздачи: да
Треклист:
01. Rufus Featuring Chaka Khan - Once You Get Started (4:30)
02. Rufus Featuring Chaka Khan - Somebody's Watching You (3:12)
03. Rufus Featuring Chaka Khan - Pack'd My Bags (5:06)
04. Rufus Featuring Chaka Khan - Your Smile (3:24)
05. Rufus Featuring Chaka Khan - Rufusized (3:13)
06. Rufus Featuring Chaka Khan - I'm A Woman (I'm A Backbone) (3:17)
07. Rufus Featuring Chaka Khan - Right Is Right (3:14)
08. Rufus Featuring Chaka Khan - Half Moon (3:18)
09. Rufus Featuring Chaka Khan - Please Pardon Me (You Remind Me Of A Friend) (3:04)
10. Rufus Featuring Chaka Khan - Stop On By (4:56)
 
Лог создания рипа
Exact Audio Copy V0.99 prebeta 4 from 23. January 2008
EAC extraction logfile from 24. July 2009, 23:48
Rufus Featuring Chaka Khan / Rufusized
Used drive : PHILIPS DVDR1628P1 Adapter: 4 ID: 0
Read mode : Secure
Utilize accurate stream : Yes
Defeat audio cache : Yes
Make use of C2 pointers : No
Read offset correction : 618
Overread into Lead-In and Lead-Out : No
Fill up missing offset samples with silence : Yes
Delete leading and trailing silent blocks : No
Null samples used in CRC calculations : Yes
Used interface : Native Win32 interface for Win NT & 2000
Gap handling : Appended to previous track
Used output format : User Defined Encoder
Selected bitrate : 768 kBit/s
Quality : High
Add ID3 tag : No
Command line compressor : C:\Program Files\Exact Audio Copy\FLAC\FLAC.EXE
Additional command line options : -6 -V -T "ARTIST=%a" -T "TITLE=%t" -T "ALBUM=%g" -T "DATE=%y" -T "TRACKNUMBER=%n" -T "GENRE=%m" -T "COMMENT=%e" %s -o %d
TOC of the extracted CD
Track | Start | Length | Start sector | End sector
---------------------------------------------------------
1 | 0:00.00 | 4:29.57 | 0 | 20231
2 | 4:29.57 | 3:12.13 | 20232 | 34644
3 | 7:41.70 | 5:06.20 | 34645 | 57614
4 | 12:48.15 | 3:24.27 | 57615 | 72941
5 | 16:12.42 | 3:13.18 | 72942 | 87434
6 | 19:25.60 | 3:16.47 | 87435 | 102181
7 | 22:42.32 | 3:13.73 | 102182 | 116729
8 | 25:56.30 | 3:17.45 | 116730 | 131549
9 | 29:14.00 | 3:04.30 | 131550 | 145379
10 | 32:18.30 | 4:55.42 | 145380 | 167546
Track 1
Filename C:\Stop Addis In The Name Of My HDD\01 - Once You Get Started.wav
Pre-gap length 0:00:02.00
Peak level 81.5 %
Track quality 100.0 %
Test CRC 9E7A12D0
Copy CRC 9E7A12D0
Accurately ripped (confidence 2) [9CA1FA56]
Copy OK
Track 2
Filename C:\Stop Addis In The Name Of My HDD\02 - Somebody's Watching You.wav
Pre-gap length 0:00:01.20
Peak level 93.8 %
Track quality 100.0 %
Test CRC EADF446D
Copy CRC EADF446D
Accurately ripped (confidence 2) [5041FB4D]
Copy OK
Track 3
Filename C:\Stop Addis In The Name Of My HDD\03 - Pack'd My Bags.wav
Peak level 81.8 %
Track quality 100.0 %
Test CRC D7B9A07C
Copy CRC D7B9A07C
Accurately ripped (confidence 2) [EC7F8551]
Copy OK
Track 4
Filename C:\Stop Addis In The Name Of My HDD\04 - Your Smile.wav
Peak level 71.5 %
Track quality 100.0 %
Test CRC A52FE9BC
Copy CRC A52FE9BC
Accurately ripped (confidence 2) [C6010DF0]
Copy OK
Track 5
Filename C:\Stop Addis In The Name Of My HDD\05 - Rufusized.wav
Peak level 91.2 %
Track quality 99.9 %
Test CRC 25BFC12D
Copy CRC 25BFC12D
Accurately ripped (confidence 2) [A4840304]
Copy OK
Track 6
Filename C:\Stop Addis In The Name Of My HDD\06 - I'm A Woman (I'm A Backbone).wav
Peak level 86.4 %
Track quality 100.0 %
Test CRC 80FFCA80
Copy CRC 80FFCA80
Accurately ripped (confidence 2) [1334FCDF]
Copy OK
Track 7
Filename C:\Stop Addis In The Name Of My HDD\07 - Right Is Right.wav
Peak level 90.5 %
Track quality 100.0 %
Test CRC BE479D0F
Copy CRC BE479D0F
Accurately ripped (confidence 2) [53E8BE6A]
Copy OK
Track 8
Filename C:\Stop Addis In The Name Of My HDD\08 - Half Moon.wav
Peak level 87.5 %
Track quality 100.0 %
Test CRC EB380A7D
Copy CRC EB380A7D
Accurately ripped (confidence 2) [EF5C88F8]
Copy OK
Track 9
Filename C:\Stop Addis In The Name Of My HDD\09 - Please Pardon Me (You Remind Me Of A Friend).wav
Pre-gap length 0:00:02.37
Peak level 91.3 %
Track quality 100.0 %
Test CRC F80958DB
Copy CRC F80958DB
Accurately ripped (confidence 2) [E9DE28DE]
Copy OK
Track 10
Filename C:\Stop Addis In The Name Of My HDD\10 - Stop On By.wav
Pre-gap length 0:00:03.26
Peak level 89.8 %
Track quality 99.9 %
Test CRC B27C850E
Copy CRC B27C850E
Accurately ripped (confidence 2) [D4280F4C]
Copy OK
All tracks accurately ripped
No errors occurred
End of status report
 
Содержание индексной карты (.CUE)
REM GENRE Soul
REM DATE 1974
REM DISCID 8C08B90A
REM COMMENT "ExactAudioCopy v0.99pb4"
PERFORMER "Rufus Featuring Chaka Khan"
TITLE "Rufusized"
FILE "01 - Once You Get Started.wav" WAVE
TRACK 01 AUDIO
TITLE "Once You Get Started"
PERFORMER "Rufus Featuring Chaka Khan"
FLAGS DCP
INDEX 01 00:00:00
TRACK 02 AUDIO
TITLE "Somebody's Watching You"
PERFORMER "Rufus Featuring Chaka Khan"
FLAGS DCP
INDEX 00 04:28:42
FILE "02 - Somebody's Watching You.wav" WAVE
INDEX 01 00:00:00
FILE "03 - Pack'd My Bags.wav" WAVE
TRACK 03 AUDIO
TITLE "Pack'd My Bags"
PERFORMER "Rufus Featuring Chaka Khan"
FLAGS DCP
INDEX 01 00:00:00
FILE "04 - Your Smile.wav" WAVE
TRACK 04 AUDIO
TITLE "Your Smile"
PERFORMER "Rufus Featuring Chaka Khan"
FLAGS DCP
INDEX 01 00:00:00
FILE "05 - Rufusized.wav" WAVE
TRACK 05 AUDIO
TITLE "Rufusized"
PERFORMER "Rufus Featuring Chaka Khan"
FLAGS DCP
INDEX 01 00:00:00
FILE "06 - I'm A Woman (I'm A Backbone).wav" WAVE
TRACK 06 AUDIO
TITLE "I'm A Woman (I'm A Backbone)"
PERFORMER "Rufus Featuring Chaka Khan"
FLAGS DCP
INDEX 01 00:00:00
FILE "07 - Right Is Right.wav" WAVE
TRACK 07 AUDIO
TITLE "Right Is Right"
PERFORMER "Rufus Featuring Chaka Khan"
FLAGS DCP
INDEX 01 00:00:00
FILE "08 - Half Moon.wav" WAVE
TRACK 08 AUDIO
TITLE "Half Moon"
PERFORMER "Rufus Featuring Chaka Khan"
FLAGS DCP
INDEX 01 00:00:00
TRACK 09 AUDIO
TITLE "Please Pardon Me (You Remind Me Of A Friend)"
PERFORMER "Rufus Featuring Chaka Khan"
FLAGS DCP
INDEX 00 03:15:17
FILE "09 - Please Pardon Me (You Remind Me Of A Friend).wav" WAVE
INDEX 01 00:00:00
TRACK 10 AUDIO
TITLE "Stop On By"
PERFORMER "Rufus Featuring Chaka Khan"
FLAGS DCP
INDEX 00 03:01:10
FILE "10 - Stop On By.wav" WAVE
INDEX 01 00:00:00
Приватный:
Нет (DHT включён)
Размер:
230.26 Мб (241,441,429 байт) » файлов: 20
Участники:
0 раздают, 1 качают (1 участников всего)
Внешние участники:
5 раздают, 1 качают (6 участников всего) [ Обновить ]
No seeders - write a personal message to user M0p94ok. Нет сидеров - пишите личное сообщение пользователю M0p94ok.
12:11
106
Нет комментариев. Ваш будет первым!