Поиск

(Soul) [CD] Quincy Jones And Bill Cosby - The Original Jam Session 1969 - 2004, FLAC (image+.cue), lossless

(Soul) [CD] Quincy Jones And Bill Cosby - The Original Jam Session 1969 - 2004, FLAC (image+.cue), lossless
Треклист:
Quincy Jones And Bill Cosby - The Original Jam Session 1969 Жанр: Soul
Носитель: CD
Год издания: 2004
Издатель (лейбл): Concord Records
Номер по каталогу: CCD-2257-2
Аудиокодек: FLAC (*.flac)
Тип рипа: image+.cue
Битрейт аудио: lossless
Продолжительность: 52:52
Rip by Boris1
Наличие сканов в содержимом раздачи: да
Треклист:
01. Hikky-Burr (Kincaid Kinfolk) (5:58)
02. Groovy Gravy (8:15)
03. Oh Happy Day (4:21)
04. Jimmy Cookin' On Top (Interlude) (1:43)
05. Toe Jam (7:50)
06. Jive Den (3:14)
07. Eubie Walkin' (7:01)
08. Monty, Is That You? (6:44)
09. The Drawing Room (Interlude) (0:59)
10. Hikky-Burr (Featuring Bill Cosby) (3:47)
11. Hikky-Burr (Mix Master Mike remix) (3:01)
 
 
Лог создания рипа
Exact Audio Copy V1.0 beta 3 from 29. August 2011
EAC extraction logfile from 10. October 2016, 1:23
Quincy Jones & Bill Cosby / The Original Jam Sessions 1969
Used drive : PIONEER BD-RW BDR-TD03 Adapter: 0 ID: 1
Read mode : Secure
Utilize accurate stream : Yes
Defeat audio cache : Yes
Make use of C2 pointers : No
Read offset correction : 667
Overread into Lead-In and Lead-Out : No
Fill up missing offset samples with silence : Yes
Delete leading and trailing silent blocks : No
Null samples used in CRC calculations : Yes
Used interface : Native Win32 interface for Win NT & 2000
Used output format : User Defined Encoder
Selected bitrate : 768 kBit/s
Quality : High
Add ID3 tag : No
Command line compressor : C:\Program Files (x86)\Exact Audio Copy\FLAC\FLAC.EXE
Additional command line options : -6 -V -T "ARTIST=%artist%" -T "TITLE=%title%" -T "ALBUM=%albumtitle%" -T "DATE=%year%" -T "TRACKNUMBER=%tracknr%" -T "GENRE=%genre%" -T "COMMENT=%comment%" -T "BAND=%albuminterpret%" -T "ALBUMARTIST=%albuminterpret%" -T "COMPOSER=%composer%" %haslyrics%--tag-from-file=LYRICS="%lyricsfile%"%haslyrics% -T "DISCNUMBER=%cdnumber%" -T "TOTALDISCS=%totalcds%" -T "TOTALTRACKS=%numtracks%" %hascover%--picture="%coverfile%"%hascover% %source% -o %dest%
TOC of the extracted CD
Track | Start | Length | Start sector | End sector
---------------------------------------------------------
1 | 0:00.00 | 5:58.16 | 0 | 26865
2 | 5:58.16 | 8:14.57 | 26866 | 63972
3 | 14:12.73 | 4:20.52 | 63973 | 83524
4 | 18:33.50 | 1:42.44 | 83525 | 91218
5 | 20:16.19 | 7:49.40 | 91219 | 126433
6 | 28:05.59 | 3:13.69 | 126434 | 140977
7 | 31:19.53 | 7:00.38 | 140978 | 172515
8 | 38:20.16 | 6:44.23 | 172516 | 202838
9 | 45:04.39 | 0:59.16 | 202839 | 207279
10 | 46:03.55 | 3:47.00 | 207280 | 224304
11 | 49:50.55 | 3:01.03 | 224305 | 237882
Range status and errors
Selected range
Filename C:\Users\Deris\Desktop\kpnemo.eu\Quin+Bil\Quincy Jones & Bill Cosby - The Original Jam Sessions 1969.wav
Peak level 92.9 %
Extraction speed 1.7 X
Range quality 100.0 %
Test CRC 6EE51EE8
Copy CRC 6EE51EE8
Copy OK
No errors occurred
AccurateRip summary
Track 1 accurately ripped (confidence 12) [6059722C] (AR v2)
Track 2 accurately ripped (confidence 13) [D84C1BE3] (AR v2)
Track 3 accurately ripped (confidence 12) [E0826510] (AR v2)
Track 4 accurately ripped (confidence 12) [ACB8852D] (AR v2)
Track 5 accurately ripped (confidence 12) [59C2655C] (AR v2)
Track 6 accurately ripped (confidence 13) [B2A10C81] (AR v2)
Track 7 accurately ripped (confidence 12) [70C17E29] (AR v2)
Track 8 accurately ripped (confidence 12) [8C5F7424] (AR v2)
Track 9 accurately ripped (confidence 12) [01077973] (AR v2)
Track 10 accurately ripped (confidence 12) [54B7DBAB] (AR v2)
Track 11 accurately ripped (confidence 12) [32EEE0D0] (AR v2)
All tracks accurately ripped
End of status report
---- CUETools DB Plugin V2.1.3
[CTDB TOCID: iPQxQtrshZBf.XUHDSCKiWzDnGI-] found, Submit result: iPQxQtrshZBf.XUHDSCKiWzDnGI- has been confirmed
[6748f8ae] (15/18) Accurately ripped
[20279aef] (02/18) Differs in 122 samples @15:16:06-15:16:07,16:08:03,17:11:61,17:21:48,17:23:24,18:18:67,21:39:24,21:59:33,26:59:60,28:24:67-28:24:68,31:20:17,35:02:08-35:02:09
[a05da0c9] (01/18) No match
You can use CUETools to repair this rip.
==== Log checksum 08F922F1BD9A8112FD13A4385AC441D17345B0EC18547BF91199BF78A3D767AF ====
 
Содержание индексной карты (.CUE)
REM GENRE Jazz
REM DATE 1969
REM DISCID 980C630B
REM COMMENT "ExactAudioCopy v1.0b3"
PERFORMER "Quincy Jones & Bill Cosby"
TITLE "The Original Jam Sessions 1969"
FILE "Quincy Jones & Bill Cosby - The Original Jam Sessions 1969.flac" WAVE
TRACK 01 AUDIO
TITLE "Hikky-Burr (Kincaid Kinfolk)"
PERFORMER "Quincy Jones & Bill Cosby"
INDEX 01 00:00:00
TRACK 02 AUDIO
TITLE "Groovy Gravy"
PERFORMER "Quincy Jones & Bill Cosby"
INDEX 00 05:56:25
INDEX 01 05:58:16
TRACK 03 AUDIO
TITLE "Oh Happy Day"
PERFORMER "Quincy Jones & Bill Cosby"
INDEX 00 14:08:69
INDEX 01 14:12:73
TRACK 04 AUDIO
TITLE "Jimmy Cookin' On Top (Interlude)"
PERFORMER "Quincy Jones & Bill Cosby"
INDEX 00 18:31:43
INDEX 01 18:33:50
TRACK 05 AUDIO
TITLE "Toe Jam"
PERFORMER "Quincy Jones & Bill Cosby"
INDEX 01 20:16:19
TRACK 06 AUDIO
TITLE "Jive Den"
PERFORMER "Quincy Jones & Bill Cosby"
INDEX 01 28:05:59
TRACK 07 AUDIO
TITLE "Eubie Walkin'"
PERFORMER "Quincy Jones & Bill Cosby"
INDEX 01 31:19:53
TRACK 08 AUDIO
TITLE "Monty, Is That You?"
PERFORMER "Quincy Jones & Bill Cosby"
INDEX 01 38:20:16
TRACK 09 AUDIO
TITLE "The Drawing Room (Interlude)"
PERFORMER "Quincy Jones & Bill Cosby"
INDEX 00 45:02:46
INDEX 01 45:04:39
TRACK 10 AUDIO
TITLE "Hikky-Burr (Featuring Bill Cosby)"
PERFORMER "Quincy Jones & Bill Cosby"
INDEX 01 46:03:55
TRACK 11 AUDIO
TITLE "Hikky-Burr (Mix Master Mike remix)"
PERFORMER "Quincy Jones & Bill Cosby"
INDEX 00 49:39:55
INDEX 01 49:50:55
Приватный:
Нет (DHT включён)
Размер:
375.65 Мб (393,897,959 байт) » файлов: 13
Участники:
0 раздают, 0 качают (0 участников всего)
Внешние участники:
2 раздают, 1 качают (3 участников всего) [ Обновить ]
No seeders - write personal message to user M0p94ok. Нет сидеров - пишите личное сообщение пользователю M0p94ok.
12:10
64
Нет комментариев. Ваш будет первым!