Поиск

(Soul / Disco / R&B Instrumental) [CD] Love Unlimited Orchestra (w. Barry White) - Rhapsody In White (1974) - 2012, FLAC (image+.cue), lossless

(Soul / Disco / R&B Instrumental) [CD] Love Unlimited Orchestra (w. Barry White) - Rhapsody In White (1974) - 2012, FLAC (image+.cue), lossless
Треклист:
Love Unlimited Orchestra (w. Barry White) / Rhapsody In White (1974)
Жанр: Soul / Disco / R&B Instrumental
Носитель: CD
Страна-производитель диска (релиза): USA
Год издания: 2012
Издатель (лейбл): Mercury
Номер по каталогу: 314 558 201-2
Страна исполнителя (группы): USA
Аудиокодек: FLAC (*.flac)
Тип рипа: image+.cue
Битрейт аудио: lossless
Продолжительность: 38:54
Источник (релизер): Од'Родр Рип
Наличие сканов в содержимом раздачи: да
Треклист:
01. Barry's Theme 04:36
02. Rhapsody In White 04:01
03. Midnight And You 05:15
04. I Feel Love Coming On 06:29
05. Baby Blues 05:41
06. Don't Take It Away From Me 04:37
07. What A Groove 04:08
08. Love's Theme 04:06
 
Лог создания рипа
Exact Audio Copy V1.0 beta 3 from 29. August 2011
Отчёт EAC об извлечении, выполненном 27. января 2012, 17:49
Love Unlimited Orchestra / Rhapsody In White
Дисковод: Optiarc DVD RW AD-7203S Adapter: 4 ID: 0
Режим чтения : Достоверность
Использование точного потока : Да
Отключение кэша аудио : Да
Использование указателей C2 : Нет
Коррекция смещения при чтении : 48
Способность читать области Lead-in и Lead-out : Нет
Заполнение пропущенных сэмплов тишиной : Да
Удаление блоков с тишиной в начале и конце : Нет
При вычислениях CRC использовались нулевые сэмплы : Да
Интерфейс : Встроенный Win32-интерфейс для Win NT/2000
Выходной формат : Пользовательский кодировщик
Выбранный битрейт : 1024 kBit/s
Качество : Высокий
Добавление ID3-тега : Нет
Утилита сжатия : C:\Program Files (x86)\Exact Audio Copy\Flac\flac.exe
Дополнительные параметры : -V -8 %source%
TOC извлечённого CD
Трек | Старт | Длительность | Начальный сектор | Конечный сектор
---------------------------------------------------------------------
1 | 0:00.32 | 4:35.58 | 32 | 20714
2 | 4:36.15 | 4:01.00 | 20715 | 38789
3 | 8:37.15 | 5:15.35 | 38790 | 62449
4 | 13:52.50 | 6:28.60 | 62450 | 91609
5 | 20:21.35 | 5:41.10 | 91610 | 117194
6 | 26:02.45 | 4:37.10 | 117195 | 137979
7 | 30:39.55 | 4:07.72 | 137980 | 156576
8 | 34:47.52 | 4:06.20 | 156577 | 175046
Характеристики диапазона извлечения и сообщения об ошибках
Выбранный диапазон
Имя файла C:\Users\diz4\Desktop\1973-Love Unlimited Orchestra - Rhapsody In White\1973-Love Unlimited Orchestra - Rhapsody In White\Love Unlimited Orchestra - Rhapsody In White.wav
Пиковый уровень 100.0 %
Скорость извлечения 3.5 X
Качество диапазона 99.9 %
CRC теста 67285D14
CRC копии 67285D14
Копирование... OK
Ошибок не произошло
AccurateRip: сводка
Трек 1 : извлечено точно (доверие 2) [C3A9ACBE] (AR v2)
Трек 2 : извлечено точно (доверие 2) [1A001027] (AR v2)
Трек 3 : извлечено точно (доверие 2) [96A8CF26] (AR v2)
Трек 4 : извлечено точно (доверие 2) [3DABD878] (AR v2)
Трек 5 : извлечено точно (доверие 2) [8CE8C1B5] (AR v2)
Трек 6 : извлечено точно (доверие 2) [558498FC] (AR v2)
Трек 7 : извлечено точно (доверие 2) [8C51B1A6] (AR v2)
Трек 8 : извлечено точно (доверие 2) [781924B7] (AR v2)
Все треки извлечены точно
Конец отчёта
==== Контрольная сумма отчёта 30A56AFF08C7D5DDCBAFE2BF9D68C157A0712CDA22C009C4831EFA645DE6278E ====
 
Содержание индексной карты (.CUE)
REM GENRE Instrumental
REM DISCID 6A091D08
REM COMMENT "ExactAudioCopy v1.0b3"
PERFORMER "Love Unlimited Orchestra"
TITLE "Rhapsody In White"
FILE "Love Unlimited Orchestra - Rhapsody In White.flac" WAVE
TRACK 01 AUDIO
TITLE "Barry's Theme"
PERFORMER "Love Unlimited Orchestra"
ISRC USMR17486805
INDEX 00 00:00:00
INDEX 01 00:00:32
TRACK 02 AUDIO
TITLE "Rhapsody In White"
PERFORMER "Love Unlimited Orchestra"
ISRC USMR17402463
INDEX 00 04:33:37
INDEX 01 04:36:15
TRACK 03 AUDIO
TITLE "Midnight And You"
PERFORMER "Love Unlimited Orchestra"
ISRC USMR17403007
INDEX 00 08:34:40
INDEX 01 08:37:15
TRACK 04 AUDIO
TITLE "I Feel Love Coming On"
PERFORMER "Love Unlimited Orchestra"
ISRC USMR17487009
INDEX 00 13:49:67
INDEX 01 13:52:50
TRACK 05 AUDIO
TITLE "Baby Blues"
PERFORMER "Love Unlimited Orchestra"
ISRC USMR17403006
INDEX 00 20:18:37
INDEX 01 20:21:35
TRACK 06 AUDIO
TITLE "Don't Take It Away From Me"
PERFORMER "Love Unlimited Orchestra"
ISRC USMR17487010
INDEX 00 25:59:60
INDEX 01 26:02:45
TRACK 07 AUDIO
TITLE "What A Groove"
PERFORMER "Love Unlimited Orchestra"
ISRC USMR17487011
INDEX 00 30:36:70
INDEX 01 30:39:55
TRACK 08 AUDIO
TITLE "Love's Theme"
PERFORMER "Love Unlimited Orchestra"
ISRC USMR17400012
INDEX 00 34:44:70
INDEX 01 34:47:52
 
Об альбоме (сборнике)
The press may have dubbed Barry White "the walrus of love," but he was certainly the guru of something for many star crossed
lovers across his Love Unlimited Orchestra output. While White rocketed up the charts with his solo "I'm Gonna Love You Just
a Little Bit More" in 1973, it was that same year's smash single "Love's Theme" that shot Love Unlimited Orchestra right up alongside
him. Mostly instrumental, all orchestral, and packed with "that" tchka tchka guitar and full-fledged disco sound well before the genre
reached maturity, Rhapsody in White set the stage and showcased the sounds that would shortly inspire a generation of producers,
arrangers, and performers to start a million mirror balls spinning the world over. This album, in all its admitted smarminess, is a triumph.
From the opening bars of "Barry's Theme," Rhapsody in White unleashes a groove which really keeps it all mellow. And even though we
have to listen through three tracks to first hear White's trademarked vocal come-on on "Midnight and You" it's well worth the wait.
He gets a little more vocal on side two, across "Don't Take It All Away" and again at the beginning of "Baby Blues," which has shag rug
in front of a fireplace written all over its arrangement. But the masterful finale, of course, is "Love's Theme." The song's lush strings
and smooth wah-wah guitars not only typified a genre, they also became an aural catchphrase for an entire generation of clubbers.
And because this is, underneath it all, a Barry White album, the teaser for the nightcap is delicious. (AMG)
Приватный:
Да (DHT отключён)
Размер:
252.90 Мб (265,183,365 байт) » файлов: 8
Участники:
0 раздают, 0 качают (0 участников всего)
Внешние участники:
3 раздают, 1 качают (4 участников всего) [ Обновить ]
Есть вопросы - пишите личное сообщение пользователю M0p94ok.
05:19
83
Нет комментариев. Ваш будет первым!