Поиск

(Smooth Soul) [CD] Gladys Knight & The Pips - Visions (1983) - 2012, FLAC (image+.cue), lossless

(Smooth Soul) [CD] Gladys Knight & The Pips - Visions (1983) - 2012, FLAC (image+.cue), lossless
Треклист:
Gladys Knight & The Pips / Visions (1983)
Жанр: Smooth Soul
Носитель: CD
Страна-производитель диска (релиза): EU
Год издания: 2012
Издатель (лейбл): Columbia/Legacy
Номер по каталогу: 88691961842-12
Страна исполнителя (группы): USA
Аудиокодек: FLAC (*.flac)
Тип рипа: image+.cue
Битрейт аудио: lossless
Продолжительность: 44:06
Источник (релизер): Од'Родр Рип
Наличие сканов в содержимом раздачи: да
Треклист:
01. When You're Far Away 05:51
02. Just Be My Lover 03:30
03. Save The Overtime (For Me) 04:44
04. Heaven Sent 04:11
05. Don't Make Me Run Away 03:48
06. Ain't No Greater Love 04:53
07. Seconds 04:38
08. You're Number One (In My Book) 05:15
09. Oh La De Da 03:35
10. Hero (Wind Beneath My Wings) 03:42
 
Лог создания рипа
Exact Audio Copy V1.0 beta 3 from 29. August 2011
Отчёт EAC об извлечении, выполненном 13. апреля 2015, 13:34
Gladys Knight & The Pips / Visions
Дисковод: Optiarc DVD RW AD-7203S Adapter: 0 ID: 0
Режим чтения : Достоверность
Использование точного потока : Да
Отключение кэша аудио : Да
Использование указателей C2 : Нет
Коррекция смещения при чтении : 48
Способность читать области Lead-in и Lead-out : Нет
Заполнение пропущенных сэмплов тишиной : Да
Удаление блоков с тишиной в начале и конце : Нет
При вычислениях CRC использовались нулевые сэмплы : Да
Интерфейс : Встроенный Win32-интерфейс для Win NT/2000
Выходной формат : Пользовательский кодировщик
Выбранный битрейт : 128 kBit/s
Качество : Высокий
Добавление ID3-тега : Нет
Утилита сжатия : C:\Program Files\Exact Audio Copy\Flac\flac.exe
Дополнительные параметры : -V -8 -T "Date=%year%" -T "Genre=%genre%" %source%
TOC извлечённого CD
Трек | Старт | Длительность | Начальный сектор | Конечный сектор
---------------------------------------------------------------------
1 | 0:00.32 | 5:51.30 | 32 | 26386
2 | 5:51.62 | 3:29.70 | 26387 | 42131
3 | 9:21.57 | 4:43.55 | 42132 | 63411
4 | 14:05.37 | 4:10.50 | 63412 | 82211
5 | 18:16.12 | 3:47.40 | 82212 | 99276
6 | 22:03.52 | 4:52.53 | 99277 | 121229
7 | 26:56.30 | 4:37.57 | 121230 | 142061
8 | 31:34.12 | 5:14.45 | 142062 | 165656
9 | 36:48.57 | 3:35.28 | 165657 | 181809
10 | 40:24.10 | 3:42.25 | 181810 | 198484
Характеристики диапазона извлечения и сообщения об ошибках
Выбранный диапазон
Имя файла F:\EAC\1983-Gladys Knight & The Pips - Visions\1983-Gladys Knight & The Pips - Visions\Gladys Knight & The Pips - Visions.wav
Пиковый уровень 90.1 %
Скорость извлечения 3.6 X
Качество диапазона 100.0 %
CRC теста 9A5AC3D7
CRC копии 9A5AC3D7
Копирование... OK
Ошибок не произошло
AccurateRip: сводка
Трек 1 : извлечено точно (доверие 7) [6CA364B3] (AR v2)
Трек 2 : извлечено точно (доверие 7) [010C17BA] (AR v2)
Трек 3 : извлечено точно (доверие 7) [D4F7CE0C] (AR v2)
Трек 4 : извлечено точно (доверие 7) [77B8E050] (AR v2)
Трек 5 : извлечено точно (доверие 7) [875968E1] (AR v2)
Трек 6 : извлечено точно (доверие 7) [84729D5F] (AR v2)
Трек 7 : извлечено точно (доверие 7) [94C36D85] (AR v2)
Трек 8 : извлечено точно (доверие 7) [C31622E6] (AR v2)
Трек 9 : извлечено точно (доверие 7) [200B017E] (AR v2)
Трек 10 : извлечено точно (доверие 7) [A1585AFA] (AR v2)
Все треки извлечены точно
Конец отчёта
==== Контрольная сумма отчёта A42D064AC52CD7B81DD49715670FD8B9B8913F64058DDBA515BFBD1DAAC3863A ====
 
Содержание индексной карты (.CUE)
REM DISCID 860A560A
REM COMMENT "ExactAudioCopy v1.0b3"
PERFORMER "Gladys Knight & The Pips"
TITLE "Visions"
FILE "Gladys Knight & The Pips - Visions.flac" WAVE
TRACK 01 AUDIO
TITLE "When You're Far Away"
PERFORMER "Gladys Knight & The Pips"
INDEX 00 00:00:00
INDEX 01 00:00:32
TRACK 02 AUDIO
TITLE "Just Be My Lover"
PERFORMER "Gladys Knight & The Pips"
INDEX 00 05:51:20
INDEX 01 05:51:62
TRACK 03 AUDIO
TITLE "Save The Overtime (For Me)"
PERFORMER "Gladys Knight & The Pips"
INDEX 01 09:21:57
TRACK 04 AUDIO
TITLE "Heaven Sent"
PERFORMER "Gladys Knight & The Pips"
INDEX 00 14:04:50
INDEX 01 14:05:37
TRACK 05 AUDIO
TITLE "Don't Make Me Run Away"
PERFORMER "Gladys Knight & The Pips"
INDEX 01 18:16:12
TRACK 06 AUDIO
TITLE "Ain't No Greater Love"
PERFORMER "Gladys Knight & The Pips"
INDEX 00 22:03:27
INDEX 01 22:03:52
TRACK 07 AUDIO
TITLE "Seconds"
PERFORMER "Gladys Knight & The Pips"
INDEX 01 26:56:30
TRACK 08 AUDIO
TITLE "You're Number One (In My Book)"
PERFORMER "Gladys Knight & The Pips"
INDEX 00 31:33:60
INDEX 01 31:34:12
TRACK 09 AUDIO
TITLE "Oh La De Da"
PERFORMER "Gladys Knight & The Pips"
INDEX 00 36:47:40
INDEX 01 36:48:57
TRACK 10 AUDIO
TITLE "Hero (Wind Beneath My Wings)"
PERFORMER "Gladys Knight & The Pips"
INDEX 01 40:24:10
 
Об альбоме (сборнике)
Leon Sylvers produced one of the finest uptempo hits Gladys Knight & the Pips ever made in "Save the Overtime for Me."
It was the kind of jubilant, celebratory, rousing performance that had marked their best Motown singles, and it put some fresh
life into what had become a stagnant group. The rest of this album wasn't that good, but it hardly mattered. They got a follow-up number
five single, another chart hit with a third release, and were back in the game.(AMG)
Приватный:
Нет (DHT включён)
Размер:
253.29 Мб (265,594,312 байт) » файлов: 7
Участники:
0 раздают, 0 качают (0 участников всего)
Внешние участники:
3 раздают, 1 качают (4 участников всего) [ Обновить ]
Есть вопросы - пишите личное сообщение пользователю M0p94ok.
05:19
60
Нет комментариев. Ваш будет первым!