Поиск

(Soul, Disco) [CD] Anglo Saxon Brown - Songs For Evolution (1976) - 2016 [Expanded Edition], FLAC (tracks+.cue), lossless

(Soul, Disco) [CD] Anglo Saxon Brown - Songs For Evolution (1976) - 2016 [Expanded Edition], FLAC (tracks+.cue), lossless
Треклист:
Anglo Saxon Brown - Songs For Evolution (1976) Жанр: Soul, Disco
Носитель: CD
Год издания: 2016
Издатель (лейбл): SoulMusic Records
Номер по каталогу: WSMCR 5131
Аудиокодек: FLAC (*.flac)
Тип рипа: tracks+.cue
Битрейт аудио: lossless
Продолжительность: 48:21
Rip by JET 1
Наличие сканов в содержимом раздачи: да
Треклист:
01. Gonna Make You Mine (6:29)
02. Straighten It Out (5:00)
03. ASB Theme (5:39)
04. The Grizzly (5:11)
05. Disco Music (6:29)
06. The Man I Love (4:45)
07. Call On Me (5:40)
08. I'll Keep Lovin' You (5:43)
09. Straighten It Out (US Atlantic Single Edit) (3:25)
 
 
Лог создания рипа
Exact Audio Copy V1.2 from 12. August 2016
EAC extraction logfile from 13. November 2016, 10:48
Anglo-Saxon Brown / Songs For Evolution
Used drive : GENERIC CDRCB05 Adapter: 1 ID: 1
Read mode : Secure
Utilize accurate stream : Yes
Defeat audio cache : Yes
Make use of C2 pointers : No
Read offset correction : 102
Overread into Lead-In and Lead-Out : No
Fill up missing offset samples with silence : Yes
Delete leading and trailing silent blocks : No
Null samples used in CRC calculations : Yes
Used interface : Native Win32 interface for Win NT & 2000
Gap handling : Appended to previous track
Used output format : User Defined Encoder
Selected bitrate : 1024 kBit/s
Quality : High
Add ID3 tag : No
Command line compressor : C:\Program Files (x86)\Exact Audio Copy\Flac\flac.exe
Additional command line options : -T "artist=%artist%" -T "title=%title%" -T "album=%albumtitle%" -T "date=%year%" -T "tracknumber=%tracknr%" -T "genre=%genre%" -5 %source%
TOC of the extracted CD
Track | Start | Length | Start sector | End sector
---------------------------------------------------------
1 | 0:00.00 | 6:29.17 | 0 | 29191
2 | 6:29.17 | 5:00.00 | 29192 | 51691
3 | 11:29.17 | 5:39.00 | 51692 | 77116
4 | 17:08.17 | 5:11.00 | 77117 | 100441
5 | 22:19.17 | 6:29.00 | 100442 | 129616
6 | 28:48.17 | 4:45.00 | 129617 | 150991
7 | 33:33.17 | 5:40.00 | 150992 | 176491
8 | 39:13.17 | 5:43.00 | 176492 | 202216
9 | 44:56.17 | 3:25.00 | 202217 | 217591
Track 1
Filename J:\POSTS\Anglo Saxon Brown • Songs For Evolution (1976) [2016 SMR]\01. GONNA MAKE YOU MINE.wav
Pre-gap length 0:00:02.00
Peak level 98.8 %
Extraction speed 2.6 X
Track quality 100.0 %
Test CRC A5982CE3
Copy CRC A5982CE3
Accurately ripped (confidence 4) [2728CFD8] (AR v2)
Copy OK
Track 2
Filename J:\POSTS\Anglo Saxon Brown • Songs For Evolution (1976) [2016 SMR]\02. STRAIGHTEN IT OUT.wav
Pre-gap length 0:00:01.57
Peak level 98.8 %
Extraction speed 2.8 X
Track quality 100.0 %
Test CRC B0181727
Copy CRC B0181727
Accurately ripped (confidence 4) [2B180F4E] (AR v2)
Copy OK
Track 3
Filename J:\POSTS\Anglo Saxon Brown • Songs For Evolution (1976) [2016 SMR]\03. A S B THEME.wav
Pre-gap length 0:00:01.57
Peak level 98.8 %
Extraction speed 2.9 X
Track quality 99.9 %
Test CRC 2CE68309
Copy CRC 2CE68309
Accurately ripped (confidence 4) [A31BA6E8] (AR v2)
Copy OK
Track 4
Filename J:\POSTS\Anglo Saxon Brown • Songs For Evolution (1976) [2016 SMR]\04. THE GRIZZLY.wav
Pre-gap length 0:00:01.57
Peak level 98.8 %
Extraction speed 3.4 X
Track quality 100.0 %
Test CRC 808F45B1
Copy CRC 808F45B1
Accurately ripped (confidence 4) [08F26735] (AR v2)
Copy OK
Track 5
Filename J:\POSTS\Anglo Saxon Brown • Songs For Evolution (1976) [2016 SMR]\05. DISCO MUSIC.wav
Pre-gap length 0:00:01.57
Peak level 98.8 %
Extraction speed 3.7 X
Track quality 100.0 %
Test CRC F6F2B554
Copy CRC F6F2B554
Accurately ripped (confidence 4) [22FC5469] (AR v2)
Copy OK
Track 6
Filename J:\POSTS\Anglo Saxon Brown • Songs For Evolution (1976) [2016 SMR]\06. THE MAN I LOVE.wav
Pre-gap length 0:00:01.56
Peak level 98.8 %
Extraction speed 3.8 X
Track quality 100.0 %
Test CRC 38B03648
Copy CRC 38B03648
Accurately ripped (confidence 4) [718B19CE] (AR v2)
Copy OK
Track 7
Filename J:\POSTS\Anglo Saxon Brown • Songs For Evolution (1976) [2016 SMR]\07. CALL ON ME.wav
Pre-gap length 0:00:01.57
Peak level 98.8 %
Extraction speed 4.1 X
Track quality 100.0 %
Test CRC 8899310C
Copy CRC 8899310C
Accurately ripped (confidence 4) [5D66E748] (AR v2)
Copy OK
Track 8
Filename J:\POSTS\Anglo Saxon Brown • Songs For Evolution (1976) [2016 SMR]\08. I’LL KEEP LOVIN’ YOU.wav
Pre-gap length 0:00:01.55
Peak level 98.8 %
Extraction speed 4.4 X
Track quality 100.0 %
Test CRC DA8FD2B2
Copy CRC DA8FD2B2
Accurately ripped (confidence 4) [0A2D6739] (AR v2)
Copy OK
Track 9
Filename J:\POSTS\Anglo Saxon Brown • Songs For Evolution (1976) [2016 SMR]\09. STRAIGHTEN IT OUT (US ATLANTIC SINGLE).wav
Pre-gap length 0:00:01.55
Peak level 98.8 %
Extraction speed 4.3 X
Track quality 100.0 %
Test CRC 9F377BD9
Copy CRC 9F377BD9
Accurately ripped (confidence 4) [A18E4169] (AR v2)
Copy OK
All tracks accurately ripped
No errors occurred
End of status report
---- CUETools DB Plugin V2.1.6
[CTDB TOCID: xgZftd5MyKUwOP62qLeLPomp2QQ-] found
Submit result: xgZftd5MyKUwOP62qLeLPomp2QQ- has been confirmed
Track | CTDB Status
1 | (3/3) Accurately ripped
2 | (3/3) Accurately ripped
3 | (3/3) Accurately ripped
4 | (3/3) Accurately ripped
5 | (3/3) Accurately ripped
6 | (3/3) Accurately ripped
7 | (3/3) Accurately ripped
8 | (3/3) Accurately ripped
9 | (3/3) Accurately ripped
 
Содержание индексной карты (.CUE)
REM GENRE Soul
REM DATE 2016
REM DISCID 670B5509
REM COMMENT "ExactAudioCopy v1.2"
PERFORMER "Anglo-Saxon Brown"
TITLE "Songs For Evolution"
FILE "01. Gonna Make You Mine.wav" WAVE
TRACK 01 AUDIO
TITLE "Gonna Make You Mine"
PERFORMER "Anglo-Saxon Brown"
ISRC USAT20612362
INDEX 01 00:00:00
TRACK 02 AUDIO
TITLE "Straighten It Out"
PERFORMER "Anglo-Saxon Brown"
ISRC USAT20612363
INDEX 00 06:27:35
FILE "02. Straighten It Out.wav" WAVE
INDEX 01 00:00:00
TRACK 03 AUDIO
TITLE "ASB Theme"
PERFORMER "Anglo-Saxon Brown"
ISRC USAT20612364
INDEX 00 04:58:18
FILE "03. ASB Theme.wav" WAVE
INDEX 01 00:00:00
TRACK 04 AUDIO
TITLE "The Grizzly"
PERFORMER "Anglo-Saxon Brown"
ISRC USAT20612365
INDEX 00 05:37:18
FILE "04. The Grizzly.wav" WAVE
INDEX 01 00:00:00
TRACK 05 AUDIO
TITLE "Disco Music"
PERFORMER "Anglo-Saxon Brown"
ISRC USAT20612366
INDEX 00 05:09:18
FILE "05. Disco Music.wav" WAVE
INDEX 01 00:00:00
TRACK 06 AUDIO
TITLE "The Man I Love"
PERFORMER "Anglo-Saxon Brown"
ISRC USAT20612367
INDEX 00 06:27:19
FILE "06. The Man I Love.wav" WAVE
INDEX 01 00:00:00
TRACK 07 AUDIO
TITLE "Call On Me"
PERFORMER "Anglo-Saxon Brown"
ISRC USAT20612368
INDEX 00 04:43:18
FILE "07. Call On Me.wav" WAVE
INDEX 01 00:00:00
TRACK 08 AUDIO
TITLE "I'll Keep Lovin' You"
PERFORMER "Anglo-Saxon Brown"
ISRC USAT20612369
INDEX 00 05:38:20
FILE "08. I'll Keep Lovin' You.wav" WAVE
INDEX 01 00:00:00
TRACK 09 AUDIO
TITLE "Straighten It Out (US Atlantic Single Edit)"
PERFORMER "Anglo-Saxon Brown"
ISRC USAT21503445
INDEX 00 05:41:20
FILE "09. Straighten It Out (US Atlantic Single Edit).wav" WAVE
INDEX 01 00:00:00
 
Об альбоме (сборнике)
SoulMusic Records is proud to present the worldwide CD debut of Songs For Evolution the only album recorded by the group Anglo-Saxon Brown, considered a much sought-after collectable LP among rare groove music buyers and DJs alike.
• An expanded edition with one bonus track (the lone 1976 single, ‘Straighten It Out’ released by Atlantic), Songs For Evolution was produced & mostly written by the Philadelphia team of Joseph Jefferson & Charles Simmons, who had penned a number of classic ‘70s hits for the Spinners including ‘Games People Play,’ ‘Mighty Love’ and ‘Love Don’t Love Nobody’) and recorded at famed Sigma Sound studios in Philly with string arrangements by Jack Faith, featuring the Don Renaldo Strings along with guitarist Bobby Eli.
• An accomplished ten member band based in Richmond, Virginia, Anglo-Saxon Brown was the 1976 iteration of the group Ujima, who recorded singles for Epic Records between 1973-1975.
• Female vocalist Debra Henry was the featured lead on key cuts such as UK rare groove favourites, ‘Gonna Make You Mine’ and ‘Call On Me’ with guitarist Clemente Burnette duetting with her on ‘I’ll Keep Lovin’ You” and lead on ‘Straighten It Out.’
• Songs For Evolution is a superb example of the classic mid-‘70s Philly sound; the reissue of this musical hidden gem includes extensive notes by renowned U.K. writer Charles Waring with quotes from producer Jefferson and members of the band; and great mastering by Donald Cleveland.
Приватный:
Нет (DHT включён)
Размер:
584.89 Мб (613,306,712 байт) » файлов: 28
Участники:
0 раздают, 0 качают (0 участников всего)
Внешние участники:
1 раздают, 0 качают (1 участников всего) [ Обновить ]
Есть вопросы - пишите личное сообщение пользователю M0p94ok.
12:17
70
Нет комментариев. Ваш будет первым!