Поиск

(R&B, Southern Soul) [CD] Clarence Carter - This Is Clarence Carter / The Dynamic Clarence Carter - 2016, FLAC (tracks+.cue), lossless

(R&B, Southern Soul) [CD] Clarence Carter - This Is Clarence Carter / The Dynamic Clarence Carter - 2016, FLAC (tracks+.cue), lossless
Треклист:
Clarence Carter - This Is Clarence Carter / The Dynamic Clarence Carter Жанр: R&B, Southern Soul
Носитель: CD
Год издания: 2016
Издатель (лейбл): Atlantic/Fame Records/Kent Records/Ace Records
Номер по каталогу: CDKEND 444
Аудиокодек: FLAC (*.flac)
Тип рипа: tracks+.cue
Битрейт аудио: lossless
Продолжительность: 76:41
Источник (релизер): ruskaval
Наличие сканов в содержимом раздачи: да
Треклист:
This Is Clarence Carter (1968)
01. Do What You Gotta Do (2:31)
02. Looking For A Fox (2:15)
03. Slipping Around (2:32)
04. I'm Qualified (2:20)
05. I Can't See Myself (2:26)
06. Wind It Up (2:36)
07. Part Time Love (2:38)
08. Thread The Needle (2:31)
09. Slip Away (2:31)
10. Funky Fever (2:51)
11. She Ain't Gonna Do Right (2:29)
12. Set Me Free (3:06)
The Dynamic Clarence Carter (1969)
13. I'd Rather Go Blind (3:01)
14. Think About It (2:44)
15. The Road Of Love (2:56)
16. You've Been A Long Time Coming (2:48)
17. Light My Fire (2:51)
18. That Old Time Feeling (2:35)
19. Steal Away (2:41)
20. Let Me Comfort You (2:17)
21. Look What I Got (3:02)
22. Too Weak To Fight (2:18)
23. Harper Valley Pta (3:37)
24. Weekend Love (2:37)
Bonus Tracks:
25. I'm Happy-Go-Lucky (2:21)
26. She Ain't Gonna Do Right (2:40)
27. Take Me, Use Me (2:24)
28. There Won't Be Another Sunset (2:45)
29. I'll Be Over After A While (2:17)
 
 
Лог создания рипа
Exact Audio Copy V1.0 beta 6 from 9. April 2015
EAC extraction logfile from 20. February 2016, 19:15
Clarence Carter / This Is Clarence Carter / The Dynamic Clarence Carter
Used drive : TSSTcorpCDDVDW SH-224BB Adapter: 1 ID: 0
Read mode : Secure
Utilize accurate stream : Yes
Defeat audio cache : Yes
Make use of C2 pointers : No
Read offset correction : 6
Overread into Lead-In and Lead-Out : No
Fill up missing offset samples with silence : Yes
Delete leading and trailing silent blocks : No
Null samples used in CRC calculations : Yes
Used interface : Native Win32 interface for Win NT & 2000
Gap handling : Appended to previous track
Used output format : User Defined Encoder
Selected bitrate : 768 kBit/s
Quality : High
Add ID3 tag : No
Command line compressor : C:\Program Files (x86)\Exact Audio Copy\Flac\flac.exe
Additional command line options : -8 -V -T "ARTIST=%artist%" -T "TITLE=%title%" -T "ALBUM=%albumtitle%" -T "DATE=%year%" -T "TRACKNUMBER=%tracknr%" -T "TOTALTRACKS=%numtracks%" -T "GENRE=%genre%" -T "ALBUMARTIST=%albumartist%" -T "ALBUM ARTIST=%albumartist%" -T "COMMENT=EAC Secure Mode, Test & Copy, AccurateRip, FLAC -8" %source%
TOC of the extracted CD
Track | Start | Length | Start sector | End sector
---------------------------------------------------------
1 | 0:00.00 | 2:30.71 | 0 | 11320
2 | 2:30.71 | 2:15.15 | 11321 | 21460
3 | 4:46.11 | 2:31.52 | 21461 | 32837
4 | 7:17.63 | 2:20.15 | 32838 | 43352
5 | 9:38.03 | 2:26.12 | 43353 | 54314
6 | 12:04.15 | 2:36.18 | 54315 | 66032
7 | 14:40.33 | 2:38.17 | 66033 | 77899
8 | 17:18.50 | 2:30.44 | 77900 | 89193
9 | 19:49.19 | 2:31.29 | 89194 | 100547
10 | 22:20.48 | 2:50.57 | 100548 | 113354
11 | 25:11.30 | 2:29.37 | 113355 | 124566
12 | 27:40.67 | 3:06.36 | 124567 | 138552
13 | 30:47.28 | 3:01.36 | 138553 | 152163
14 | 33:48.64 | 2:44.08 | 152164 | 164471
15 | 36:32.72 | 2:56.07 | 164472 | 177678
16 | 39:29.04 | 2:48.11 | 177679 | 190289
17 | 42:17.15 | 2:50.40 | 190290 | 203079
18 | 45:07.55 | 2:35.07 | 203080 | 214711
19 | 47:42.62 | 2:40.45 | 214712 | 226756
20 | 50:23.32 | 2:17.20 | 226757 | 237051
21 | 52:40.52 | 3:02.12 | 237052 | 250713
22 | 55:42.64 | 2:17.39 | 250714 | 261027
23 | 58:00.28 | 3:36.65 | 261028 | 277292
24 | 61:37.18 | 2:37.33 | 277293 | 289100
25 | 64:14.51 | 2:21.22 | 289101 | 299697
26 | 66:35.73 | 2:40.36 | 299698 | 311733
27 | 69:16.34 | 2:23.43 | 311734 | 322501
28 | 71:40.02 | 2:44.61 | 322502 | 334862
29 | 74:24.63 | 2:16.40 | 334863 | 345102
Track 1
Filename C:\Rips\Clarence Carter - This Is Clarence Carter (1968) & The Dynamic Clarence Carter (1969) [FLAC] (2on1 2016)\01 - Do What You Gotta Do.wav
Pre-gap length 0:00:02.00
Peak level 98.8 %
Extraction speed 4.1 X
Track quality 100.0 %
Test CRC BEFC5968
Copy CRC BEFC5968
Track not present in AccurateRip database
Copy OK
Track 2
Filename C:\Rips\Clarence Carter - This Is Clarence Carter (1968) & The Dynamic Clarence Carter (1969) [FLAC] (2on1 2016)\02 - Looking For A Fox.wav
Pre-gap length 0:00:01.36
Peak level 98.8 %
Extraction speed 4.2 X
Track quality 100.0 %
Test CRC AB705507
Copy CRC AB705507
Track not present in AccurateRip database
Copy OK
Track 3
Filename C:\Rips\Clarence Carter - This Is Clarence Carter (1968) & The Dynamic Clarence Carter (1969) [FLAC] (2on1 2016)\03 - Slipping Around.wav
Pre-gap length 0:00:01.45
Peak level 98.3 %
Extraction speed 3.4 X
Track quality 99.9 %
Test CRC 2A5B162F
Copy CRC 2A5B162F
Track not present in AccurateRip database
Copy OK
Track 4
Filename C:\Rips\Clarence Carter - This Is Clarence Carter (1968) & The Dynamic Clarence Carter (1969) [FLAC] (2on1 2016)\04 - I'm Qualified.wav
Pre-gap length 0:00:01.00
Peak level 98.8 %
Extraction speed 4.7 X
Track quality 100.0 %
Test CRC 4F1D8C14
Copy CRC 4F1D8C14
Track not present in AccurateRip database
Copy OK
Track 5
Filename C:\Rips\Clarence Carter - This Is Clarence Carter (1968) & The Dynamic Clarence Carter (1969) [FLAC] (2on1 2016)\05 - I Can't See Myself.wav
Pre-gap length 0:00:01.57
Peak level 98.8 %
Extraction speed 5.0 X
Track quality 100.0 %
Test CRC B2E9DE8B
Copy CRC B2E9DE8B
Track not present in AccurateRip database
Copy OK
Track 6
Filename C:\Rips\Clarence Carter - This Is Clarence Carter (1968) & The Dynamic Clarence Carter (1969) [FLAC] (2on1 2016)\06 - Wind It Up.wav
Pre-gap length 0:00:01.48
Peak level 98.1 %
Extraction speed 5.2 X
Track quality 100.0 %
Test CRC 62B669AF
Copy CRC 62B669AF
Track not present in AccurateRip database
Copy OK
Track 7
Filename C:\Rips\Clarence Carter - This Is Clarence Carter (1968) & The Dynamic Clarence Carter (1969) [FLAC] (2on1 2016)\07 - Part Time Love.wav
Pre-gap length 0:00:02.57
Peak level 70.7 %
Extraction speed 5.2 X
Track quality 100.0 %
Test CRC A0F95958
Copy CRC A0F95958
Track not present in AccurateRip database
Copy OK
Track 8
Filename C:\Rips\Clarence Carter - This Is Clarence Carter (1968) & The Dynamic Clarence Carter (1969) [FLAC] (2on1 2016)\08 - Thread The Needle.wav
Pre-gap length 0:00:02.15
Peak level 98.8 %
Extraction speed 5.5 X
Track quality 100.0 %
Test CRC 8B17F64F
Copy CRC 8B17F64F
Track not present in AccurateRip database
Copy OK
Track 9
Filename C:\Rips\Clarence Carter - This Is Clarence Carter (1968) & The Dynamic Clarence Carter (1969) [FLAC] (2on1 2016)\09 - Slip Away.wav
Pre-gap length 0:00:02.09
Peak level 88.1 %
Extraction speed 4.2 X
Track quality 99.9 %
Test CRC 6B60FC4B
Copy CRC 6B60FC4B
Track not present in AccurateRip database
Copy OK
Track 10
Filename C:\Rips\Clarence Carter - This Is Clarence Carter (1968) & The Dynamic Clarence Carter (1969) [FLAC] (2on1 2016)\10 - Funky Fever.wav
Pre-gap length 0:00:02.36
Peak level 98.8 %
Extraction speed 6.0 X
Track quality 100.0 %
Test CRC C24D7C69
Copy CRC C24D7C69
Track not present in AccurateRip database
Copy OK
Track 11
Filename C:\Rips\Clarence Carter - This Is Clarence Carter (1968) & The Dynamic Clarence Carter (1969) [FLAC] (2on1 2016)\11 - She Ain't Gonna Do Right.wav
Pre-gap length 0:00:02.57
Peak level 98.8 %
Extraction speed 6.0 X
Track quality 100.0 %
Test CRC 52097DD9
Copy CRC 52097DD9
Track not present in AccurateRip database
Copy OK
Track 12
Filename C:\Rips\Clarence Carter - This Is Clarence Carter (1968) & The Dynamic Clarence Carter (1969) [FLAC] (2on1 2016)\12 - Set Me Free.wav
Pre-gap length 0:00:03.05
Peak level 98.8 %
Extraction speed 6.3 X
Track quality 100.0 %
Test CRC 74F51B5B
Copy CRC 74F51B5B
Track not present in AccurateRip database
Copy OK
Track 13
Filename C:\Rips\Clarence Carter - This Is Clarence Carter (1968) & The Dynamic Clarence Carter (1969) [FLAC] (2on1 2016)\13 - I'd Rather Go Blind.wav
Pre-gap length 0:00:03.14
Peak level 96.2 %
Extraction speed 6.2 X
Track quality 100.0 %
Test CRC BB186980
Copy CRC BB186980
Track not present in AccurateRip database
Copy OK
Track 14
Filename C:\Rips\Clarence Carter - This Is Clarence Carter (1968) & The Dynamic Clarence Carter (1969) [FLAC] (2on1 2016)\14 - Think About It.wav
Pre-gap length 0:00:01.65
Peak level 96.2 %
Extraction speed 6.6 X
Track quality 100.0 %
Test CRC 9B80F43D
Copy CRC 9B80F43D
Track not present in AccurateRip database
Copy OK
Track 15
Filename C:\Rips\Clarence Carter - This Is Clarence Carter (1968) & The Dynamic Clarence Carter (1969) [FLAC] (2on1 2016)\15 - The Road Of Love.wav
Pre-gap length 0:00:01.67
Peak level 90.8 %
Extraction speed 6.8 X
Track quality 100.0 %
Test CRC 591F3F45
Copy CRC 591F3F45
Track not present in AccurateRip database
Copy OK
Track 16
Filename C:\Rips\Clarence Carter - This Is Clarence Carter (1968) & The Dynamic Clarence Carter (1969) [FLAC] (2on1 2016)\16 - You've Been A Long Time Coming.wav
Pre-gap length 0:00:02.21
Peak level 96.2 %
Extraction speed 6.9 X
Track quality 100.0 %
Test CRC 406C9442
Copy CRC 406C9442
Track not present in AccurateRip database
Copy OK
Track 17
Filename C:\Rips\Clarence Carter - This Is Clarence Carter (1968) & The Dynamic Clarence Carter (1969) [FLAC] (2on1 2016)\17 - Light My Fire.wav
Pre-gap length 0:00:02.55
Peak level 96.2 %
Extraction speed 7.0 X
Track quality 100.0 %
Test CRC 42D68723
Copy CRC 42D68723
Track not present in AccurateRip database
Copy OK
Track 18
Filename C:\Rips\Clarence Carter - This Is Clarence Carter (1968) & The Dynamic Clarence Carter (1969) [FLAC] (2on1 2016)\18 - That Old Time Feeling.wav
Pre-gap length 0:00:02.68
Peak level 97.6 %
Extraction speed 7.0 X
Track quality 100.0 %
Test CRC 1AFBF716
Copy CRC 1AFBF716
Track not present in AccurateRip database
Copy OK
Track 19
Filename C:\Rips\Clarence Carter - This Is Clarence Carter (1968) & The Dynamic Clarence Carter (1969) [FLAC] (2on1 2016)\19 - Steal Away.wav
Pre-gap length 0:00:02.28
Peak level 88.8 %
Extraction speed 7.2 X
Track quality 100.0 %
Test CRC 610D25D7
Copy CRC 610D25D7
Track not present in AccurateRip database
Copy OK
Track 20
Filename C:\Rips\Clarence Carter - This Is Clarence Carter (1968) & The Dynamic Clarence Carter (1969) [FLAC] (2on1 2016)\20 - Let Me Comfort You.wav
Pre-gap length 0:00:02.26
Peak level 85.7 %
Extraction speed 7.1 X
Track quality 100.0 %
Test CRC 5EC7CE33
Copy CRC 5EC7CE33
Track not present in AccurateRip database
Copy OK
Track 21
Filename C:\Rips\Clarence Carter - This Is Clarence Carter (1968) & The Dynamic Clarence Carter (1969) [FLAC] (2on1 2016)\21 - Look What I Got.wav
Pre-gap length 0:00:02.04
Peak level 87.8 %
Extraction speed 7.4 X
Track quality 100.0 %
Test CRC 53147FDE
Copy CRC 53147FDE
Track not present in AccurateRip database
Copy OK
Track 22
Filename C:\Rips\Clarence Carter - This Is Clarence Carter (1968) & The Dynamic Clarence Carter (1969) [FLAC] (2on1 2016)\22 - Too Weak To Fight.wav
Pre-gap length 0:00:02.44
Peak level 96.2 %
Extraction speed 6.9 X
Track quality 100.0 %
Test CRC 759D9778
Copy CRC 759D9778
Track not present in AccurateRip database
Copy OK
Track 23
Filename C:\Rips\Clarence Carter - This Is Clarence Carter (1968) & The Dynamic Clarence Carter (1969) [FLAC] (2on1 2016)\23 - Harper Valley Pta.wav
Pre-gap length 0:00:02.08
Peak level 96.2 %
Extraction speed 8.1 X
Track quality 100.0 %
Test CRC 07D93EBC
Copy CRC 07D93EBC
Track not present in AccurateRip database
Copy OK
Track 24
Filename C:\Rips\Clarence Carter - This Is Clarence Carter (1968) & The Dynamic Clarence Carter (1969) [FLAC] (2on1 2016)\24 - Weekend Love.wav
Pre-gap length 0:00:01.51
Peak level 96.2 %
Extraction speed 7.7 X
Track quality 100.0 %
Test CRC 0A2A0C9F
Copy CRC 0A2A0C9F
Track not present in AccurateRip database
Copy OK
Track 25
Filename C:\Rips\Clarence Carter - This Is Clarence Carter (1968) & The Dynamic Clarence Carter (1969) [FLAC] (2on1 2016)\25 - I'm Happy-Go-Lucky.wav
Pre-gap length 0:00:02.30
Peak level 95.2 %
Extraction speed 7.7 X
Track quality 100.0 %
Test CRC 8E9C37AA
Copy CRC 8E9C37AA
Track not present in AccurateRip database
Copy OK
Track 26
Filename C:\Rips\Clarence Carter - This Is Clarence Carter (1968) & The Dynamic Clarence Carter (1969) [FLAC] (2on1 2016)\26 - She Ain't Gonna Do Right.wav
Pre-gap length 0:00:02.39
Peak level 96.2 %
Extraction speed 7.8 X
Track quality 100.0 %
Test CRC C9EEB8DF
Copy CRC C9EEB8DF
Track not present in AccurateRip database
Copy OK
Track 27
Filename C:\Rips\Clarence Carter - This Is Clarence Carter (1968) & The Dynamic Clarence Carter (1969) [FLAC] (2on1 2016)\27 - Take Me, Use Me.wav
Pre-gap length 0:00:02.48
Peak level 96.2 %
Extraction speed 7.9 X
Track quality 100.0 %
Test CRC 6678D1AB
Copy CRC 6678D1AB
Track not present in AccurateRip database
Copy OK
Track 28
Filename C:\Rips\Clarence Carter - This Is Clarence Carter (1968) & The Dynamic Clarence Carter (1969) [FLAC] (2on1 2016)\28 - There Won't Be Another Sunset.wav
Pre-gap length 0:00:02.57
Peak level 96.1 %
Extraction speed 8.3 X
Track quality 100.0 %
Test CRC FFE4100A
Copy CRC FFE4100A
Track not present in AccurateRip database
Copy OK
Track 29
Filename C:\Rips\Clarence Carter - This Is Clarence Carter (1968) & The Dynamic Clarence Carter (1969) [FLAC] (2on1 2016)\29 - I'll Be Over After A While.wav
Pre-gap length 0:00:02.24
Peak level 96.1 %
Extraction speed 8.0 X
Track quality 100.0 %
Test CRC 9DEBBACC
Copy CRC 9DEBBACC
Track not present in AccurateRip database
Copy OK
None of the tracks are present in the AccurateRip database
No errors occurred
End of status report
---- CUETools DB Plugin V2.1.6
[CTDB TOCID: oKKyF5B.NB.5OLBNpG6SQ1m4UT0-] disk not present in database
Submit result: oKKyF5B.NB.5OLBNpG6SQ1m4UT0- has been uploaded
==== Log checksum 7DC3061AB32FB899FE933619F4D893131165AA9648662EB9894DF800DDCCD1C9 ====
 
Содержание индексной карты (.CUE)
REM GENRE Soul
REM DATE 2016
REM DISCID B111F91D
REM COMMENT "ExactAudioCopy v1.0b6"
PERFORMER "Clarence Carter"
TITLE "This Is Clarence Carter / The Dynamic Clarence Carter"
FILE "01 - Do What You Gotta Do.wav" WAVE
TRACK 01 AUDIO
TITLE "Do What You Gotta Do"
PERFORMER "Clarence Carter"
INDEX 01 00:00:00
TRACK 02 AUDIO
TITLE "Looking For A Fox"
PERFORMER "Clarence Carter"
INDEX 00 02:29:35
FILE "02 - Looking For A Fox.wav" WAVE
INDEX 01 00:00:00
TRACK 03 AUDIO
TITLE "Slipping Around"
PERFORMER "Clarence Carter"
INDEX 00 02:13:45
FILE "03 - Slipping Around.wav" WAVE
INDEX 01 00:00:00
TRACK 04 AUDIO
TITLE "I'm Qualified"
PERFORMER "Clarence Carter"
INDEX 00 02:30:52
FILE "04 - I'm Qualified.wav" WAVE
INDEX 01 00:00:00
TRACK 05 AUDIO
TITLE "I Can't See Myself"
PERFORMER "Clarence Carter"
INDEX 00 02:18:33
FILE "05 - I Can't See Myself.wav" WAVE
INDEX 01 00:00:00
TRACK 06 AUDIO
TITLE "Wind It Up"
PERFORMER "Clarence Carter"
INDEX 00 02:24:39
FILE "06 - Wind It Up.wav" WAVE
INDEX 01 00:00:00
TRACK 07 AUDIO
TITLE "Part Time Love"
PERFORMER "Clarence Carter"
INDEX 00 02:33:36
FILE "07 - Part Time Love.wav" WAVE
INDEX 01 00:00:00
TRACK 08 AUDIO
TITLE "Thread The Needle"
PERFORMER "Clarence Carter"
INDEX 00 02:36:02
FILE "08 - Thread The Needle.wav" WAVE
INDEX 01 00:00:00
TRACK 09 AUDIO
TITLE "Slip Away"
PERFORMER "Clarence Carter"
INDEX 00 02:28:35
FILE "09 - Slip Away.wav" WAVE
INDEX 01 00:00:00
TRACK 10 AUDIO
TITLE "Funky Fever"
PERFORMER "Clarence Carter"
INDEX 00 02:28:68
FILE "10 - Funky Fever.wav" WAVE
INDEX 01 00:00:00
TRACK 11 AUDIO
TITLE "She Ain't Gonna Do Right"
PERFORMER "Clarence Carter"
INDEX 00 02:48:00
FILE "11 - She Ain't Gonna Do Right.wav" WAVE
INDEX 01 00:00:00
TRACK 12 AUDIO
TITLE "Set Me Free"
PERFORMER "Clarence Carter"
INDEX 00 02:26:32
FILE "12 - Set Me Free.wav" WAVE
INDEX 01 00:00:00
TRACK 13 AUDIO
TITLE "I'd Rather Go Blind"
PERFORMER "Clarence Carter"
INDEX 00 03:03:22
FILE "13 - I'd Rather Go Blind.wav" WAVE
INDEX 01 00:00:00
TRACK 14 AUDIO
TITLE "Think About It"
PERFORMER "Clarence Carter"
INDEX 00 02:59:46
FILE "14 - Think About It.wav" WAVE
INDEX 01 00:00:00
TRACK 15 AUDIO
TITLE "The Road Of Love"
PERFORMER "Clarence Carter"
INDEX 00 02:42:16
FILE "15 - The Road Of Love.wav" WAVE
INDEX 01 00:00:00
TRACK 16 AUDIO
TITLE "You've Been A Long Time Coming"
PERFORMER "Clarence Carter"
INDEX 00 02:53:61
FILE "16 - You've Been A Long Time Coming.wav" WAVE
INDEX 01 00:00:00
TRACK 17 AUDIO
TITLE "Light My Fire"
PERFORMER "Clarence Carter"
INDEX 00 02:45:31
FILE "17 - Light My Fire.wav" WAVE
INDEX 01 00:00:00
TRACK 18 AUDIO
TITLE "That Old Time Feeling"
PERFORMER "Clarence Carter"
INDEX 00 02:47:47
FILE "18 - That Old Time Feeling.wav" WAVE
INDEX 01 00:00:00
TRACK 19 AUDIO
TITLE "Steal Away"
PERFORMER "Clarence Carter"
INDEX 00 02:32:54
FILE "19 - Steal Away.wav" WAVE
INDEX 01 00:00:00
TRACK 20 AUDIO
TITLE "Let Me Comfort You"
PERFORMER "Clarence Carter"
INDEX 00 02:38:19
FILE "20 - Let Me Comfort You.wav" WAVE
INDEX 01 00:00:00
TRACK 21 AUDIO
TITLE "Look What I Got"
PERFORMER "Clarence Carter"
INDEX 00 02:15:16
FILE "21 - Look What I Got.wav" WAVE
INDEX 01 00:00:00
TRACK 22 AUDIO
TITLE "Too Weak To Fight"
PERFORMER "Clarence Carter"
INDEX 00 02:59:43
FILE "22 - Too Weak To Fight.wav" WAVE
INDEX 01 00:00:00
TRACK 23 AUDIO
TITLE "Harper Valley Pta"
PERFORMER "Clarence Carter"
INDEX 00 02:15:31
FILE "23 - Harper Valley Pta.wav" WAVE
INDEX 01 00:00:00
TRACK 24 AUDIO
TITLE "Weekend Love"
PERFORMER "Clarence Carter"
INDEX 00 03:35:14
FILE "24 - Weekend Love.wav" WAVE
INDEX 01 00:00:00
TRACK 25 AUDIO
TITLE "I'm Happy-Go-Lucky"
PERFORMER "Clarence Carter"
INDEX 00 02:35:03
FILE "25 - I'm Happy-Go-Lucky.wav" WAVE
INDEX 01 00:00:00
TRACK 26 AUDIO
TITLE "She Ain't Gonna Do Right"
PERFORMER "Clarence Carter"
INDEX 00 02:18:58
FILE "26 - She Ain't Gonna Do Right.wav" WAVE
INDEX 01 00:00:00
TRACK 27 AUDIO
TITLE "Take Me, Use Me"
PERFORMER "Clarence Carter"
INDEX 00 02:37:63
FILE "27 - Take Me, Use Me.wav" WAVE
INDEX 01 00:00:00
TRACK 28 AUDIO
TITLE "There Won't Be Another Sunset"
PERFORMER "Clarence Carter"
INDEX 00 02:20:61
FILE "28 - There Won't Be Another Sunset.wav" WAVE
INDEX 01 00:00:00
TRACK 29 AUDIO
TITLE "I'll Be Over After A While"
PERFORMER "Clarence Carter"
INDEX 00 02:42:37
FILE "29 - I'll Be Over After A While.wav" WAVE
INDEX 01 00:00:00
 
Об альбоме (сборнике)
In early 1967 Rick Hall’s Fame set-up was missing a vital ingredient. Despite all the success he had achieved as a producer, studio-owner, publisher and record label boss, he had yet to sign an enduring artist. That was about to change. The previous year a duo who recorded as Clarence & Calvin hired the studio to cut a self-financed single. They had been working together for five years and had just left a deal with Houston-based Duke Records. As he watched them, Hall thought he had found his stars and urged them to come back and sign with him. When the day came, only Clarence Carter appeared. At first, Hall was dismissive of the singer’s pleas to be signed as a solo act but eventually relented and gave him a go.
In their first year together, Carter placed a few singles on the R&B chart and provided Etta James with one of her signature songs by writing ‘Tell Mama’, but it wasn’t until his records switched from the Fame label to the higher-profile Atlantic that big hits started coming. Essentially, nothing had changed. His records were still recorded by Hall at Fame with the same musicians but DJs seemed to take Atlantic releases more seriously. Everyone involved thought ‘Funky Fever’ would be Carter’s breakthrough but it was its flip, ‘Slip Away’, that hit the higher reaches of the R&B charts, selling over a million copies. This success was followed by ‘Too Weak To Fight’ also going gold.
The success of the 45s each resulted in an album. The first, “This Is Clarence Carter”, gathered up most of his pre-hit A-sides and added a few tracks no-one had heard before. The second, “The Dynamic Clarence Carter”, comprised ‘Too Weak To Fight’ and its B-side, plus pop covers and versions of Fame-published songs.
For this release we are also including a handful of previously unissued cuts that have languished in the Fame vaults for the best part of 50 years: ‘I’ll Be Over After A While’, which was one of the demos Clarence & Calvin recorded at Fame, three hitherto unknown songs and a demo of Carter’s version of Dan Penn and Spooner Oldham’s ‘She Ain’t Gonna Do Right’.
If you want these albums on CD, this is the definitive issue.
Приватный:
Нет (DHT включён)
Размер:
500.00 Мб (524,286,643 байт) » файлов: 45
Участники:
0 раздают, 0 качают (0 участников всего)
Внешние участники:
3 раздают, 1 качают (4 участников всего) [ Обновить ]
Есть вопросы - пишите личное сообщение пользователю M0p94ok.
12:18
73
Нет комментариев. Ваш будет первым!