Поиск

(Soul, Christmas) [CD] The Temptations - The Very Best Of The Temptations Christmas - 2001, FLAC (image+.cue), lossless

(Soul, Christmas) [CD] The Temptations - The Very Best Of The Temptations Christmas - 2001, FLAC (image+.cue), lossless
Треклист:
The Temptations - The Very Best Of The Temptations Christmas Жанр: Soul, Christmas
Носитель: CD
Год издания: 2001
Издатель (лейбл): Motown
Номер по каталогу: 440 014 594-2
Аудиокодек: FLAC (*.flac)
Тип рипа: image+.cue
Битрейт аудио: lossless
Продолжительность: 48:51
Rip by firepower
Наличие сканов в содержимом раздачи: да
Треклист:
01. Rudolph The Red Nose Reindeer (3:09)
02. Silver Bells (2:12)
03. The Little Drummer Boy (3:25)
04. Santa Claus Is Comin' To Town (3:23)
05. White Christmas (4:26)
06. Let It Snow (3:37)
07. The Christmas Song (Chestnuts Roasting On An Open Fire) (5:12)
08. This Christmas (4:26)
09. Give Love On Christmas Day (3:38)
10. Christmas Everyday (2:56)
11. Silent Night (6:08)
12. Oh Holy Night (6:19)
 
 
Лог создания рипа
Exact Audio Copy V1.0 beta 2 from 29. April 2011
EAC extraction logfile from 6. December 2015, 21:53
Temptations / The Very Best of The Temptations Christmas
Used drive : LITE-ON LTR-52327S Adapter: 0 ID: 1
Read mode : Secure
Utilize accurate stream : Yes
Defeat audio cache : Yes
Make use of C2 pointers : No
Read offset correction : 6
Overread into Lead-In and Lead-Out : No
Fill up missing offset samples with silence : Yes
Delete leading and trailing silent blocks : No
Null samples used in CRC calculations : Yes
Used interface : Native Win32 interface for Win NT & 2000
Used output format : User Defined Encoder
Selected bitrate : 768 kBit/s
Quality : High
Add ID3 tag : No
Command line compressor : C:\Program Files (x86)\EAC 1.0 beta 2\Exact Audio Copy\Flac\flac.exe
Additional command line options : -0 -V -T "ARTIST=%artist%" -T "TITLE=%title%" -T "ALBUM=%albumtitle%" -T "DATE=%year%" -T "TRACKNUMBER=%tracknr%" -T "GENRE=%genre%" -T "COMMENT=ExactAudioCopy v1.0b2 rip by firepower at Avaxhome" -T "BAND=%albuminterpret%"
TOC of the extracted CD
Track | Start | Length | Start sector | End sector
---------------------------------------------------------
1 | 0:00.00 | 3:09.00 | 0 | 14174
2 | 3:09.00 | 2:11.62 | 14175 | 24061
3 | 5:20.62 | 3:25.00 | 24062 | 39436
4 | 8:45.62 | 3:23.02 | 39437 | 54663
5 | 12:08.64 | 4:26.21 | 54664 | 74634
6 | 16:35.10 | 3:36.47 | 74635 | 90881
7 | 20:11.57 | 5:11.58 | 90882 | 114264
8 | 25:23.40 | 4:26.15 | 114265 | 134229
9 | 29:49.55 | 3:37.42 | 134230 | 150546
10 | 33:27.22 | 2:56.15 | 150547 | 163761
11 | 36:23.37 | 6:07.55 | 163762 | 191341
12 | 42:31.17 | 6:19.30 | 191342 | 219796
Range status and errors
Selected range
Filename J:\Avaxhome\firepower\Temptations - The Very Best of The Temptations Christmas.wav
Peak level 100.0 %
Extraction speed 8.7 X
Range quality 100.0 %
Test CRC C49E5B00
Copy CRC C49E5B00
Copy OK
No errors occurred
AccurateRip summary
Track 1 accurately ripped (confidence 10) [9E806C9D] (AR v2)
Track 2 accurately ripped (confidence 10) [E67A9694] (AR v2)
Track 3 accurately ripped (confidence 10) [7D5BE989] (AR v2)
Track 4 accurately ripped (confidence 10) [BDE70F10] (AR v2)
Track 5 accurately ripped (confidence 10) [6968D0DD] (AR v2)
Track 6 accurately ripped (confidence 10) [7FADF0C9] (AR v2)
Track 7 accurately ripped (confidence 10) [A27277D2] (AR v2)
Track 8 accurately ripped (confidence 10) [52248AA3] (AR v2)
Track 9 accurately ripped (confidence 10) [E77DAFFB] (AR v2)
Track 10 accurately ripped (confidence 10) [AE441DBC] (AR v2)
Track 11 accurately ripped (confidence 10) [AF124AAB] (AR v2)
Track 12 accurately ripped (confidence 9) [73BE2B70] (AR v2)
All tracks accurately ripped
End of status report
==== Log checksum D2D38E526C8BB9BF8A17329B869CF96A600A6AADE3E5F44B51AED93A0ABBD0E8 ====
 
Содержание индексной карты (.CUE)
REM GENRE Christmas
REM DATE 2001
REM DISCID 950B720C
REM COMMENT "ExactAudioCopy v1.0b2"
PERFORMER "The Temptations"
TITLE "The Very Best Of The Temptations Christmas"
FILE "Temptations - The Very Best of The Temptations Christmas.flac" WAVE
TRACK 01 AUDIO
TITLE "Rudolph The Red Nose Reindeer"
PERFORMER "The Temptations"
INDEX 01 00:00:00
TRACK 02 AUDIO
TITLE "Silver Bells"
PERFORMER "The Temptations"
INDEX 00 03:07:42
INDEX 01 03:09:00
TRACK 03 AUDIO
TITLE "The Little Drummer Boy "
PERFORMER "The Temptations"
INDEX 00 05:19:15
INDEX 01 05:20:62
TRACK 04 AUDIO
TITLE "Santa Claus Is Comin' To Town"
PERFORMER "The Temptations"
INDEX 00 08:44:55
INDEX 01 08:45:62
TRACK 05 AUDIO
TITLE "White Christmas"
PERFORMER "The Temptations"
INDEX 00 12:07:25
INDEX 01 12:08:64
TRACK 06 AUDIO
TITLE "Let It Snow"
PERFORMER "The Temptations"
INDEX 00 16:33:02
INDEX 01 16:35:10
TRACK 07 AUDIO
TITLE "The Christmas Song (Chestnuts Roasting On An Open Fire)"
PERFORMER "The Temptations"
INDEX 00 20:09:02
INDEX 01 20:11:57
TRACK 08 AUDIO
TITLE "This Christmas "
PERFORMER "The Temptations"
INDEX 00 25:21:35
INDEX 01 25:23:40
TRACK 09 AUDIO
TITLE "Give Love On Christmas Day"
PERFORMER "The Temptations"
INDEX 00 29:48:12
INDEX 01 29:49:55
TRACK 10 AUDIO
TITLE "Christmas Everyday"
PERFORMER "The Temptations"
INDEX 00 33:25:62
INDEX 01 33:27:22
TRACK 11 AUDIO
TITLE "Silent Night"
PERFORMER "The Temptations"
INDEX 01 36:23:37
TRACK 12 AUDIO
TITLE "Oh Holy Night"
PERFORMER "The Temptations"
INDEX 00 42:27:34
INDEX 01 42:31:17
Приватный:
Нет (DHT включён)
Размер:
389.50 Мб (408,424,877 байт) » файлов: 10
Участники:
0 раздают, 0 качают (0 участников всего)
Внешние участники:
3 раздают, 1 качают (4 участников всего) [ Обновить ]
Есть вопросы - пишите личное сообщение пользователю M0p94ok.
09:01
84
Нет комментариев. Ваш будет первым!