Поиск

(Funk, Soul, R&B) [CD] Michael Henderson - Do It All (1979) - 2014, FLAC (tracks+.cue), lossless

(Funk, Soul, R&B) [CD] Michael Henderson - Do It All (1979) - 2014, FLAC (tracks+.cue), lossless
Треклист:
Michael Henderson - Do It All (1979) Жанр: Funk, Soul, R&B
Носитель: CD
Год издания: 2014
Издатель (лейбл): Funkytowngrooves
Номер по каталогу: FTG-364
Аудиокодек: FLAC (*.flac)
Тип рипа: tracks+.cue
Битрейт аудио: lossless
Продолжительность: 42:09
Rip by JET 1
Наличие сканов в содержимом раздачи: да
Треклист:
01. Playing On the Real Thing (4:22)
02. Everybody Wants To Know Why (3:15)
03. To Be Loved (4:46)
04. Do It All (5:19)
05. In The Summertime (4:11)
06. Wait Until The Rain (7:21)
07. Riding (5:23)
08. Do It All [7'' Version] (3:30)
09. To Be Loved [7'' Version] (4:01)
 
 
Лог создания рипа
Exact Audio Copy V1.0 beta 3 from 29. August 2011
EAC extraction logfile from 8. December 2015, 14:37
Michael Henderson / Do It All
Used drive : GENERIC CDRCB05 Adapter: 4 ID: 0
Read mode : Secure
Utilize accurate stream : Yes
Defeat audio cache : Yes
Make use of C2 pointers : No
Read offset correction : 102
Overread into Lead-In and Lead-Out : No
Fill up missing offset samples with silence : Yes
Delete leading and trailing silent blocks : No
Null samples used in CRC calculations : Yes
Used interface : Native Win32 interface for Win NT & 2000
Gap handling : Appended to previous track
Used output format : User Defined Encoder
Selected bitrate : 1024 kBit/s
Quality : High
Add ID3 tag : No
Command line compressor : C:\Program Files\FLAC\flac.exe
Additional command line options : -8 -V -T "ARTIST=%artist%" -T "TITLE=%title%" -T "ALBUM=%albumtitle%" -T "DATE=%year%" -T "TRACKNUMBER=%tracknr%" -T "GENRE=%genre%" -T "PERFORMER=%albuminterpret%" -T "COMPOSER=%composer%" %haslyrics%--tag-from-file=LYRICS="%lyricsfile%"%haslyrics% -T "ALBUMARTIST=%albumartist%" -T "DISCNUMBER=%cdnumber%" -T "TOTALDISCS=%totalcds%" -T "TOTALTRACKS=%numtracks%" -T "COMMENT=%comment%" %source% -o %dest%
TOC of the extracted CD
Track | Start | Length | Start sector | End sector
---------------------------------------------------------
1 | 0:00.00 | 4:21.46 | 0 | 19620
2 | 4:21.46 | 3:15.18 | 19621 | 34263
3 | 7:36.64 | 4:46.22 | 34264 | 55735
4 | 12:23.11 | 5:18.61 | 55736 | 79646
5 | 17:41.72 | 4:11.08 | 79647 | 98479
6 | 21:53.05 | 7:21.20 | 98480 | 131574
7 | 29:14.25 | 5:23.13 | 131575 | 155812
8 | 34:37.38 | 3:30.33 | 155813 | 171595
9 | 38:07.71 | 4:01.35 | 171596 | 189705
Track 1
Filename F:\POSTS\Michael Henderson - Do It All (1979) [2014 FTG]\01 - Playing On the Real Thing.wav
Pre-gap length 0:00:02.00
Peak level 100.0 %
Extraction speed 1.7 X
Track quality 99.9 %
Test CRC 349C57F5
Copy CRC 349C57F5
Track not present in AccurateRip database
Copy OK
Track 2
Filename F:\POSTS\Michael Henderson - Do It All (1979) [2014 FTG]\02 - Everybody Wants To Know Why.wav
Pre-gap length 0:00:01.32
Peak level 99.1 %
Extraction speed 2.4 X
Track quality 100.0 %
Test CRC 7C02AF57
Copy CRC 7C02AF57
Track not present in AccurateRip database
Copy OK
Track 3
Filename F:\POSTS\Michael Henderson - Do It All (1979) [2014 FTG]\03 - To Be Loved.wav
Pre-gap length 0:00:01.32
Peak level 97.6 %
Extraction speed 2.7 X
Track quality 100.0 %
Test CRC 76DD6047
Copy CRC 76DD6047
Track not present in AccurateRip database
Copy OK
Track 4
Filename F:\POSTS\Michael Henderson - Do It All (1979) [2014 FTG]\04 - Do It All.wav
Pre-gap length 0:00:01.32
Peak level 98.6 %
Extraction speed 3.0 X
Track quality 100.0 %
Test CRC 31AD0D24
Copy CRC 31AD0D24
Track not present in AccurateRip database
Copy OK
Track 5
Filename F:\POSTS\Michael Henderson - Do It All (1979) [2014 FTG]\05 - In the Summertime.wav
Pre-gap length 0:00:01.32
Peak level 100.0 %
Extraction speed 3.1 X
Track quality 100.0 %
Test CRC 9D1279E8
Copy CRC 9D1279E8
Track not present in AccurateRip database
Copy OK
Track 6
Filename F:\POSTS\Michael Henderson - Do It All (1979) [2014 FTG]\06 - Wait Until the Rain.wav
Pre-gap length 0:00:01.33
Peak level 99.2 %
Extraction speed 3.5 X
Track quality 100.0 %
Test CRC 4E83BE39
Copy CRC 4E83BE39
Track not present in AccurateRip database
Copy OK
Track 7
Filename F:\POSTS\Michael Henderson - Do It All (1979) [2014 FTG]\07 - Riding.wav
Pre-gap length 0:00:01.33
Peak level 99.8 %
Extraction speed 3.7 X
Track quality 100.0 %
Test CRC 229171C3
Copy CRC 229171C3
Track not present in AccurateRip database
Copy OK
Track 8
Filename F:\POSTS\Michael Henderson - Do It All (1979) [2014 FTG]\08 - Do It All [7'' Version].wav
Pre-gap length 0:00:01.32
Peak level 100.0 %
Extraction speed 3.6 X
Track quality 100.0 %
Test CRC 492ED1B0
Copy CRC 492ED1B0
Track not present in AccurateRip database
Copy OK
Track 9
Filename F:\POSTS\Michael Henderson - Do It All (1979) [2014 FTG]\09 - To Be Loved [7'' Version].wav
Pre-gap length 0:00:01.32
Peak level 97.7 %
Extraction speed 3.9 X
Track quality 100.0 %
Test CRC 6D883BBC
Copy CRC 6D883BBC
Track not present in AccurateRip database
Copy OK
None of the tracks are present in the AccurateRip database
No errors occurred
End of status report
==== Log checksum 4B0E106EB7B853A65DED91128061A9455D20E591D473CB952D6918F1CB41D04F ====
 
Содержание индексной карты (.CUE)
REM GENRE Soul
REM DATE 1979
REM DISCID 7C09E109
REM COMMENT "ExactAudioCopy v1.0b3"
PERFORMER "Michael Henderson"
TITLE "Do It All"
FILE "01 - Playing On the Real Thing.wav" WAVE
TRACK 01 AUDIO
TITLE "Playing On the Real Thing"
PERFORMER "Michael Henderson"
INDEX 01 00:00:00
TRACK 02 AUDIO
TITLE "Everybody Wants To Know Why"
PERFORMER "Michael Henderson"
INDEX 00 04:20:14
FILE "02 - Everybody Wants To Know Why.wav" WAVE
INDEX 01 00:00:00
TRACK 03 AUDIO
TITLE "To Be Loved"
PERFORMER "Michael Henderson"
INDEX 00 03:13:61
FILE "03 - To Be Loved.wav" WAVE
INDEX 01 00:00:00
TRACK 04 AUDIO
TITLE "Do It All"
PERFORMER "Michael Henderson"
INDEX 00 04:44:65
FILE "04 - Do It All.wav" WAVE
INDEX 01 00:00:00
TRACK 05 AUDIO
TITLE "In the Summertime"
PERFORMER "Michael Henderson"
INDEX 00 05:17:29
FILE "05 - In the Summertime.wav" WAVE
INDEX 01 00:00:00
TRACK 06 AUDIO
TITLE "Wait Until the Rain"
PERFORMER "Michael Henderson"
INDEX 00 04:09:50
FILE "06 - Wait Until the Rain.wav" WAVE
INDEX 01 00:00:00
TRACK 07 AUDIO
TITLE "Riding"
PERFORMER "Michael Henderson"
INDEX 00 07:19:62
FILE "07 - Riding.wav" WAVE
INDEX 01 00:00:00
TRACK 08 AUDIO
TITLE "Do It All [7' Version]"
PERFORMER "Michael Henderson"
INDEX 00 05:21:56
FILE "08 - Do It All [7'' Version].wav" WAVE
INDEX 01 00:00:00
TRACK 09 AUDIO
TITLE "To Be Loved [7' Version]"
PERFORMER "Michael Henderson"
INDEX 00 03:29:01
FILE "09 - To Be Loved [7'' Version].wav" WAVE
INDEX 01 00:00:00
Приватный:
Нет (DHT включён)
Размер:
359.26 Мб (376,707,156 байт) » файлов: 19
Участники:
0 раздают, 0 качают (0 участников всего)
Внешние участники:
2 раздают, 1 качают (3 участников всего) [ Обновить ]
Есть вопросы - пишите личное сообщение пользователю M0p94ok.
09:02
79
Нет комментариев. Ваш будет первым!