Поиск

(Soul) [CD] The Temptations - Number 1's - 2007, FLAC (image+.cue), lossless

(Soul) [CD] The Temptations - Number 1's - 2007, FLAC (image+.cue), lossless
Треклист:
The Temptations - Number 1's Жанр: Soul
Носитель: CD
Год издания: 2007
Издатель (лейбл): Motown Records/Universal
Номер по каталогу: B0008670-02
Аудиокодек: FLAC (*.flac)
Тип рипа: image+.cue
Битрейт аудио: lossless
Продолжительность: 70:06
Rip by firepower
Наличие сканов в содержимом раздачи: да
Треклист:
01. The Way You Do The Things You Do (2:41)
02. My Girl (2:57)
03. Get Ready (2:39)
04. Ain't Too Proud To Beg (2:33)
05. Beauty Is Only Skin Deep (2:23)
06. (I Know) I'm Losing You (2:29)
07. You're My Everything (2:57)
08. I Wish It Would Rain (2:47)
09. I'm Gonna Make You Love Me (3:08)
10. I Could Never Love Another (3:32)
11. Run Away Child, Running Wild (4:48)
12. I Can't Get Next To You (2:53)
13. Ball Of Confusion (4:04)
14. Just My Imagination (3:48)
15. Papa Was A Rollin' Stone (6:59)
16. Masterpiece (4:22)
17. Let Your Hair Down (2:40)
18. Happy People (3:38)
19. Shakey Ground (4:03)
20. Stay (4:47)
 
 
Лог создания рипа
Exact Audio Copy V1.0 beta 2 from 29. April 2011
EAC extraction logfile from 29. July 2016, 18:31
The Temptations / Number 1's
Used drive : LITE-ON LTR-52327S Adapter: 0 ID: 1
Read mode : Secure
Utilize accurate stream : Yes
Defeat audio cache : Yes
Make use of C2 pointers : No
Read offset correction : 6
Overread into Lead-In and Lead-Out : No
Fill up missing offset samples with silence : Yes
Delete leading and trailing silent blocks : No
Null samples used in CRC calculations : Yes
Used interface : Native Win32 interface for Win NT & 2000
Used output format : User Defined Encoder
Selected bitrate : 768 kBit/s
Quality : High
Add ID3 tag : No
Command line compressor : C:\Program Files (x86)\EAC 1.0 beta 2\Exact Audio Copy\Flac\flac.exe
Additional command line options : -0 -V -T "ARTIST=%artist%" -T "TITLE=%title%" -T "ALBUM=%albumtitle%" -T "DATE=%year%" -T "TRACKNUMBER=%tracknr%" -T "GENRE=%genre%" -T "COMMENT=ExactAudioCopy v1.0b2 rip by firepower at Avaxhome" -T "BAND=%albuminterpret%"
TOC of the extracted CD
Track | Start | Length | Start sector | End sector
---------------------------------------------------------
1 | 0:00.00 | 2:40.48 | 0 | 12047
2 | 2:40.48 | 2:56.54 | 12048 | 25301
3 | 5:37.27 | 2:39.02 | 25302 | 37228
4 | 8:16.29 | 2:33.17 | 37229 | 48720
5 | 10:49.46 | 2:22.45 | 48721 | 59415
6 | 13:12.16 | 2:28.72 | 59416 | 70587
7 | 15:41.13 | 2:57.17 | 70588 | 83879
8 | 18:38.30 | 2:46.39 | 83880 | 96368
9 | 21:24.69 | 3:07.52 | 96369 | 110445
10 | 24:32.46 | 3:32.11 | 110446 | 126356
11 | 28:04.57 | 4:47.44 | 126357 | 147925
12 | 32:52.26 | 2:53.15 | 147926 | 160915
13 | 35:45.41 | 4:03.72 | 160916 | 179212
14 | 39:49.38 | 3:48.08 | 179213 | 196320
15 | 43:37.46 | 6:58.55 | 196321 | 227725
16 | 50:36.26 | 4:21.72 | 227726 | 247372
17 | 54:58.23 | 2:40.37 | 247373 | 259409
18 | 57:38.60 | 3:37.42 | 259410 | 275726
19 | 61:16.27 | 4:02.52 | 275727 | 293928
20 | 65:19.04 | 4:46.67 | 293929 | 315445
Range status and errors
Selected range
Filename J:\Avaxhome\firepower\The Temptations - Number 1's.wav
Peak level 100.0 %
Extraction speed 6.9 X
Range quality 100.0 %
Test CRC 3A14AA1C
Copy CRC 3A14AA1C
Copy OK
No errors occurred
AccurateRip summary
Track 1 accurately ripped (confidence 12) [91C23A71] (AR v2)
Track 2 accurately ripped (confidence 12) [37B29CDF] (AR v2)
Track 3 accurately ripped (confidence 12) [B04C61B9] (AR v2)
Track 4 accurately ripped (confidence 12) [7C3C7118] (AR v2)
Track 5 accurately ripped (confidence 12) [B9862DEB] (AR v2)
Track 6 accurately ripped (confidence 12) [C0414DF2] (AR v2)
Track 7 accurately ripped (confidence 12) [93574BF2] (AR v2)
Track 8 accurately ripped (confidence 12) [1457EDC8] (AR v2)
Track 9 accurately ripped (confidence 12) [A1E171CA] (AR v2)
Track 10 accurately ripped (confidence 12) [B9C1F3E2] (AR v2)
Track 11 accurately ripped (confidence 12) [9D2A99BF] (AR v2)
Track 12 accurately ripped (confidence 12) [FBDCABE4] (AR v2)
Track 13 accurately ripped (confidence 12) [A53167B0] (AR v2)
Track 14 accurately ripped (confidence 12) [DDD6C9AA] (AR v2)
Track 15 accurately ripped (confidence 12) [D2C277E7] (AR v2)
Track 16 accurately ripped (confidence 11) [FE190F0B] (AR v2)
Track 17 accurately ripped (confidence 11) [B2FADD5A] (AR v2)
Track 18 accurately ripped (confidence 11) [59904102] (AR v2)
Track 19 accurately ripped (confidence 11) [8C553991] (AR v2)
Track 20 accurately ripped (confidence 11) [3B739580] (AR v2)
All tracks accurately ripped
End of status report
==== Log checksum 4D1523C2B0BB5E4BE78A1D7FBD54C89ADF6FCE0D57898289A1A1BAD02181DC04 ====
 
Содержание индексной карты (.CUE)
REM GENRE R&B
REM DATE 2007
REM DISCID 26106D14
REM COMMENT "ExactAudioCopy v1.0b2"
PERFORMER "The Temptations"
TITLE "Number 1's"
FILE "The Temptations - Number 1's.flac" WAVE
TRACK 01 AUDIO
TITLE "The Way You Do The Things You Do"
PERFORMER "The Temptations"
INDEX 01 00:00:00
TRACK 02 AUDIO
TITLE "My Girl"
PERFORMER "The Temptations"
INDEX 01 02:40:48
TRACK 03 AUDIO
TITLE "Get Ready"
PERFORMER "The Temptations"
INDEX 00 05:36:19
INDEX 01 05:37:27
TRACK 04 AUDIO
TITLE "Ain't Too Proud To Beg"
PERFORMER "The Temptations"
INDEX 00 08:15:08
INDEX 01 08:16:29
TRACK 05 AUDIO
TITLE "Beauty Is Only Skin Deep"
PERFORMER "The Temptations"
INDEX 00 10:48:11
INDEX 01 10:49:46
TRACK 06 AUDIO
TITLE "(I Know) I'm Losing You"
PERFORMER "The Temptations"
ISRC USMO16600243
INDEX 00 13:11:08
INDEX 01 13:12:16
TRACK 07 AUDIO
TITLE "You're My Everything"
PERFORMER "The Temptations"
INDEX 00 15:40:08
INDEX 01 15:41:13
TRACK 08 AUDIO
TITLE "I Wish It Would Rain"
PERFORMER "The Temptations"
INDEX 01 18:38:30
TRACK 09 AUDIO
TITLE "I'm Gonna Make You Love Me"
PERFORMER "The Temptations"
INDEX 01 21:24:69
TRACK 10 AUDIO
TITLE "I Could Never Love Another"
PERFORMER "The Temptations"
INDEX 01 24:32:46
TRACK 11 AUDIO
TITLE "Run Away Child, Running Wild"
PERFORMER "The Temptations"
INDEX 01 28:04:57
TRACK 12 AUDIO
TITLE "I Can't Get Next To You"
PERFORMER "The Temptations"
INDEX 00 32:51:13
INDEX 01 32:52:26
TRACK 13 AUDIO
TITLE "Ball Of Confusion"
PERFORMER "The Temptations"
INDEX 00 35:44:41
INDEX 01 35:45:41
TRACK 14 AUDIO
TITLE "Just My Imagination"
PERFORMER "The Temptations"
INDEX 01 39:49:38
TRACK 15 AUDIO
TITLE "Papa Was A Rollin' Stone"
PERFORMER "The Temptations"
INDEX 00 43:36:46
INDEX 01 43:37:46
TRACK 16 AUDIO
TITLE "Masterpiece"
PERFORMER "The Temptations"
ISRC USMO17300295
INDEX 01 50:36:26
TRACK 17 AUDIO
TITLE "Let Your Hair Down"
PERFORMER "The Temptations"
INDEX 01 54:58:23
TRACK 18 AUDIO
TITLE "Happy People"
PERFORMER "The Temptations"
INDEX 00 57:37:36
INDEX 01 57:38:60
TRACK 19 AUDIO
TITLE "Shakey Ground"
PERFORMER "The Temptations"
ISRC USMO17500370
INDEX 01 61:16:27
TRACK 20 AUDIO
TITLE "Stay"
PERFORMER "The Temptations"
INDEX 01 65:19:04
 
Об альбоме (сборнике)
Released in early 2007 as part of Universal's extensive and cheaply packaged Number 1's: Temptations series (see also: volumes dedicated to James Brown and Marvin Gaye), this disc compiles 20 number one R&B singles from the Temptations. It's worth mentioning that some of the inclusions - "The Way You Do the Things You Do," "You're My Everything," "I'm Gonna Make You Love Me," "Ball of Confusion" - were number ones on the Cash Box chart, rather than the Billboard chart (the usual source), and 1998's "Stay" is a bit of a stretch since it topped Billboard's Urban Adult Contemporary chart. Nothing can argue against the set as a decent introduction to the group, even though several great singles – such as "Cloud Nine" - peaked below the top spots.
Приватный:
Нет (DHT включён)
Размер:
625.99 Мб (656,398,093 байт) » файлов: 12
Участники:
0 раздают, 0 качают (0 участников всего)
Внешние участники:
7 раздают, 2 качают (9 участников всего) [ Обновить ]
Есть вопросы - пишите личное сообщение пользователю M0p94ok.
12:15
117
Нет комментариев. Ваш будет первым!