Поиск

(Funk) [CD] Kool & The Gang - Kool & The Gang (Live In London 1993) - 1998, FLAC (tracks+.cue), lossless

(Funk) [CD] Kool & The Gang - Kool & The Gang (Live In London 1993) - 1998, FLAC (tracks+.cue), lossless
Треклист:
Kool & The Gang / Kool & The Gang (Live In London 1993)
Жанр: Funk
Носитель: CD
Страна-производитель диска (релиза): EU
Год издания: 1998
Издатель (лейбл): Delta Music GmbH
Номер по каталогу: 12607/1
Аудиокодек: FLAC (*.flac)
Тип рипа: tracks+.cue
Битрейт аудио: lossless
Продолжительность: 1:05:06.
Источник (релизер): clustert
Наличие сканов в содержимом раздачи: да
Треклист:
01. Tonight [0:04:43.60]
02. Emergency [0:06:53.67]
03. Victory [0:04:00.03]
04. Take my Heart [0:03:30.60]
05. Joanna [0:05:27.32]
06. Cherish [0:05:02.20]
07. Too Hot [0:05:21.15]
08. Unite [0:05:10.08]
09. Ladies Night [0:03:50.55]
10. Fresh [0:04:35.42]
11. Get Down On It [0:02:11.43]
12. Celebration [0:04:37.10]
13. Ooh La La La [0:04:33.02]
14. Hollywood Swinging [0:05:08.33]
 
Лог создания рипа
Exact Audio Copy V1.0 beta 3 from 29. August 2011
Отчёт EAC об извлечении, выполненном 29. октября 2016, 15:06
Kool and the Gang / Kool and the Gang
Дисковод: ASUS DRW-1814BLT Adapter: 4 ID: 0
Режим чтения : Достоверность
Использование точного потока : Да
Отключение кэша аудио : Да
Использование указателей C2 : Нет
Коррекция смещения при чтении : 6
Способность читать области Lead-in и Lead-out : Нет
Заполнение пропущенных сэмплов тишиной : Да
Удаление блоков с тишиной в начале и конце : Нет
При вычислениях CRC использовались нулевые сэмплы : Да
Интерфейс : Встроенный Win32-интерфейс для Win NT/2000
Обработка зазоров : Добавлено к предыдущему треку
Выходной формат : Пользовательский кодировщик
Выбранный битрейт : 128 kBit/s
Качество : Высокий
Добавление ID3-тега : Нет
Утилита сжатия : C:\Program Files\Exact Audio Copy\Flac\flac.exe
Дополнительные параметры : -V -8 -T "Genre=%genre%" -T "Artist=%artist%" -T "Title=%title%" -T "Album=%albumtitle%" -T "Date=%year%" -T "Tracknumber=%tracknr%" -T "Comment=EAC1.0b2 FLAC -8" %source%
TOC извлечённого CD
Трек | Старт | Длительность | Начальный сектор | Конечный сектор
---------------------------------------------------------------------
1 | 0:00.00 | 4:43.60 | 0 | 21284
2 | 4:43.60 | 6:53.67 | 21285 | 52326
3 | 11:37.52 | 4:00.03 | 52327 | 70329
4 | 15:37.55 | 3:30.60 | 70330 | 86139
5 | 19:08.40 | 5:27.32 | 86140 | 110696
6 | 24:35.72 | 5:02.20 | 110697 | 133366
7 | 29:38.17 | 5:21.15 | 133367 | 157456
8 | 34:59.32 | 5:10.08 | 157457 | 180714
9 | 40:09.40 | 3:50.55 | 180715 | 198019
10 | 44:00.20 | 4:35.42 | 198020 | 218686
11 | 48:35.62 | 2:11.43 | 218687 | 228554
12 | 50:47.30 | 4:37.10 | 228555 | 249339
13 | 55:24.40 | 4:33.02 | 249340 | 269816
14 | 59:57.42 | 5:08.33 | 269817 | 292949
Трек 1
Имя файла R:\Раздача 68\Kool & The Gang - (1993) 1998\01 Tonight .wav
Длина предзазора 0:00:02.00
Пиковый уровень 89.2 %
Скорость извлечения 2.7 X
Качество трека 100.0 %
CRC теста D49B9570
CRC копии D49B9570
Точность не определена (достоверность 4) [6B05EAFB], AccurateRip вернул [9B34B005] (AR v2)
Копирование... OK
Трек 2
Имя файла R:\Раздача 68\Kool & The Gang - (1993) 1998\02 Emergency .wav
Пиковый уровень 89.2 %
Скорость извлечения 3.2 X
Качество трека 100.0 %
CRC теста 8B1F0C53
CRC копии 8B1F0C53
Точность не определена (достоверность 4) [A93FA611], AccurateRip вернул [E1AF37F7] (AR v2)
Копирование... OK
Трек 3
Имя файла R:\Раздача 68\Kool & The Gang - (1993) 1998\03 Victory .wav
Длина предзазора 0:00:00.01
Пиковый уровень 89.2 %
Скорость извлечения 2.0 X
Качество трека 99.9 %
CRC теста B1B76BB5
CRC копии B1B76BB5
Точность не определена (достоверность 4) [855C311E], AccurateRip вернул [1E6F43E0] (AR v2)
Копирование... OK
Трек 4
Имя файла R:\Раздача 68\Kool & The Gang - (1993) 1998\04 Take my Heart .wav
Длина предзазора 0:00:00.01
Пиковый уровень 89.1 %
Скорость извлечения 2.0 X
Качество трека 99.9 %
CRC теста 18B6A3E8
CRC копии 18B6A3E8
Точность не определена (достоверность 4) [9613FF4F], AccurateRip вернул [EBA52731] (AR v2)
Копирование... OK
Трек 5
Имя файла R:\Раздача 68\Kool & The Gang - (1993) 1998\05 Joanna .wav
Длина предзазора 0:00:00.01
Пиковый уровень 89.2 %
Скорость извлечения 4.0 X
Качество трека 100.0 %
CRC теста 6412D720
CRC копии 6412D720
Точность не определена (достоверность 4) [4AA887DE], AccurateRip вернул [31E87BB6] (AR v2)
Копирование... OK
Трек 6
Имя файла R:\Раздача 68\Kool & The Gang - (1993) 1998\06 Cherish .wav
Длина предзазора 0:00:00.01
Пиковый уровень 89.2 %
Скорость извлечения 4.2 X
Качество трека 100.0 %
CRC теста 985A78BF
CRC копии 985A78BF
Точность не определена (достоверность 4) [92B6010E], AccurateRip вернул [ECD8798C] (AR v2)
Копирование... OK
Трек 7
Имя файла R:\Раздача 68\Kool & The Gang - (1993) 1998\07 Too Hot .wav
Длина предзазора 0:00:00.01
Пиковый уровень 89.2 %
Скорость извлечения 4.4 X
Качество трека 100.0 %
CRC теста A78485E3
CRC копии A78485E3
Точность не определена (достоверность 4) [32E63398], AccurateRip вернул [426FB4A2] (AR v2)
Копирование... OK
Трек 8
Имя файла R:\Раздача 68\Kool & The Gang - (1993) 1998\08 Unite .wav
Пиковый уровень 89.2 %
Скорость извлечения 2.8 X
Качество трека 99.9 %
CRC теста 592B63D7
CRC копии 592B63D7
Точность не определена (достоверность 4) [7B60A0D2], AccurateRip вернул [ABE9A446] (AR v2)
Копирование... OK
Трек 9
Имя файла R:\Раздача 68\Kool & The Gang - (1993) 1998\09 Ladies Night .wav
Длина предзазора 0:00:00.01
Пиковый уровень 90.0 %
Скорость извлечения 2.7 X
Качество трека 99.9 %
CRC теста ECBCBD62
CRC копии ECBCBD62
Точность не определена (достоверность 4) [08C64BCC], AccurateRip вернул [ADDA5DE9] (AR v2)
Копирование... OK
Трек 10
Имя файла R:\Раздача 68\Kool & The Gang - (1993) 1998\10 Fresh .wav
Длина предзазора 0:00:00.01
Пиковый уровень 89.2 %
Скорость извлечения 2.9 X
Качество трека 99.9 %
CRC теста 4A8E9FA9
CRC копии 4A8E9FA9
Точность не определена (достоверность 4) [EA24137E], AccurateRip вернул [D85ED629] (AR v2)
Копирование... OK
Трек 11
Имя файла R:\Раздача 68\Kool & The Gang - (1993) 1998\11 Get Down On It .wav
Длина предзазора 0:00:00.01
Пиковый уровень 89.2 %
Скорость извлечения 4.5 X
Качество трека 100.0 %
CRC теста 44815D55
CRC копии 44815D55
Точность не определена (достоверность 4) [4EA4751F], AccurateRip вернул [C15A4475] (AR v2)
Копирование... OK
Трек 12
Имя файла R:\Раздача 68\Kool & The Gang - (1993) 1998\12 Celebration .wav
Пиковый уровень 89.3 %
Скорость извлечения 5.2 X
Качество трека 100.0 %
CRC теста 5272FAD9
CRC копии 5272FAD9
Точность не определена (достоверность 4) [F5426CAA], AccurateRip вернул [95E8265F] (AR v2)
Копирование... OK
Трек 13
Имя файла R:\Раздача 68\Kool & The Gang - (1993) 1998\13 Ooh La La La .wav
Длина предзазора 0:00:00.01
Пиковый уровень 90.5 %
Скорость извлечения 5.3 X
Качество трека 100.0 %
CRC теста DF10D4C3
CRC копии DF10D4C3
Точность не определена (достоверность 4) [FA758D4D], AccurateRip вернул [6778CD94] (AR v2)
Копирование... OK
Трек 14
Имя файла R:\Раздача 68\Kool & The Gang - (1993) 1998\14 Hollywood Swinging .wav
Длина предзазора 0:00:00.01
Пиковый уровень 89.8 %
Скорость извлечения 3.4 X
Качество трека 99.9 %
CRC теста 401EE375
CRC копии 401EE375
Точность не определена (достоверность 3) [38B7C2BE], AccurateRip вернул [B8E6C490] (AR v2)
Копирование... OK
Ни один трек не прошёл проверки на точность
В вашей базе может быть иной вариант штамповки диска
Ошибок не произошло
Конец отчёта
==== Контрольная сумма отчёта DC0DDE2C79989CFBC5E5B9AD1978182DE93EC992839D847930E80C6BC93BC1C8 ====
 
Содержание индексной карты (.CUE)
REM GENRE Funk
REM DATE 1998
REM DISCID CD0F420E
REM COMMENT "ExactAudioCopy v1.0b3"
CATALOG 0000000000000
PERFORMER "Kool and the Gang"
TITLE "Kool and the Gang"
FILE "01 Tonight .wav" WAVE
TRACK 01 AUDIO
TITLE "Tonight"
PERFORMER "Kool and the Gang"
INDEX 01 00:00:00
FILE "02 Emergency .wav" WAVE
TRACK 02 AUDIO
TITLE "Emergency"
PERFORMER "Kool and the Gang"
INDEX 01 00:00:00
TRACK 03 AUDIO
TITLE "Victory"
PERFORMER "Kool and the Gang"
INDEX 00 06:53:66
FILE "03 Victory .wav" WAVE
INDEX 01 00:00:00
TRACK 04 AUDIO
TITLE "Take my Heart"
PERFORMER "Kool and the Gang"
INDEX 00 04:00:02
FILE "04 Take my Heart .wav" WAVE
INDEX 01 00:00:00
TRACK 05 AUDIO
TITLE "Joanna"
PERFORMER "Kool and the Gang"
INDEX 00 03:30:59
FILE "05 Joanna .wav" WAVE
INDEX 01 00:00:00
TRACK 06 AUDIO
TITLE "Cherish"
PERFORMER "Kool and the Gang"
INDEX 00 05:27:31
FILE "06 Cherish .wav" WAVE
INDEX 01 00:00:00
TRACK 07 AUDIO
TITLE "Too Hot"
PERFORMER "Kool and the Gang"
INDEX 00 05:02:19
FILE "07 Too Hot .wav" WAVE
INDEX 01 00:00:00
FILE "08 Unite .wav" WAVE
TRACK 08 AUDIO
TITLE "Unite"
PERFORMER "Kool and the Gang"
INDEX 01 00:00:00
TRACK 09 AUDIO
TITLE "Ladies Night"
PERFORMER "Kool and the Gang"
INDEX 00 05:10:07
FILE "09 Ladies Night .wav" WAVE
INDEX 01 00:00:00
TRACK 10 AUDIO
TITLE "Fresh"
PERFORMER "Kool and the Gang"
INDEX 00 03:50:54
FILE "10 Fresh .wav" WAVE
INDEX 01 00:00:00
TRACK 11 AUDIO
TITLE "Get Down On It"
PERFORMER "Kool and the Gang"
INDEX 00 04:35:41
FILE "11 Get Down On It .wav" WAVE
INDEX 01 00:00:00
FILE "12 Celebration .wav" WAVE
TRACK 12 AUDIO
TITLE "Celebration"
PERFORMER "Kool and the Gang"
INDEX 01 00:00:00
TRACK 13 AUDIO
TITLE "Ooh La La La"
PERFORMER "Kool and the Gang"
INDEX 00 04:37:09
FILE "13 Ooh La La La .wav" WAVE
INDEX 01 00:00:00
TRACK 14 AUDIO
TITLE "Hollywood Swinging"
PERFORMER "Kool and the Gang"
INDEX 00 04:33:01
FILE "14 Hollywood Swinging .wav" WAVE
INDEX 01 00:00:00
Приватный:
Нет (DHT включён)
Размер:
470.39 Мб (493,235,650 байт) » файлов: 24
Участники:
0 раздают, 0 качают (0 участников всего)
Внешние участники:
1 раздают, 0 качают (1 участников всего) [ Обновить ]
No seeders - write personal message to user M0p94ok. Нет сидеров - пишите личное сообщение пользователю M0p94ok.
12:14
112
Нет комментариев. Ваш будет первым!