Поиск

(Soul) [CD] Sammy & Freedom Unity - Salute to Soul - 1971 (2013 Japan Edition), FLAC (tracks+.cue), lossless

(Soul) [CD] Sammy & Freedom Unity - Salute to Soul - 1971 (2013 Japan Edition), FLAC (tracks+.cue), lossless
Треклист:
Sammy & Freedom Unity - Salute to Soul
Жанр: Soul
Носитель: CD
Страна-производитель диска (релиза): Япония
Год издания: 1971 (2013)
Издатель (лейбл): Columbia (Deep Jazz Reality)
Номер по каталогу: COCB-54058
Аудиокодек: FLAC (*.flac)
Тип рипа: tracks+.cue
Битрейт аудио: lossless
Продолжительность: 43:39
Источник (релизер): wikieup (what)
Наличие сканов в содержимом раздачи: нет
Треклист:
01. The House of the Rising Sun (5:32)
02. Summertime (4:08)
03. What Am I Living For (3:19)
04. Trouble Blues (3:22)
05. I Love You More Than You'll Ever Know (5:45)
06. St. James Infirmary (3:42)
07. Nobody's Fault But Mine (2:43)
08. Willow Weep for Me (4:07)
09. See See Rider (3:58)
10. I Want a Little Sugar in My Bowl (2:25)
11. Hey Jude (4:38)
Состав:
Sammy (Masami Chino) - vocals
Akira Ishikawa - drums
Hiromasa Suzuki - keyboards
Kunimitsu Inaba - bass
Takeru Muraoka - tenor saxophone, soprano saxophone
Hiroshi Suzuki - trombone
 
Лог создания рипа
Exact Audio Copy V1.0 beta 3 from 29. August 2011
EAC extraction logfile from 25. April 2014, 11:33
Sammy & Freedom Unity / Salute To Soul [2013 Reissue]
Used drive : TSSTcorpDVD-ROM TS-U333B Adapter: 0 ID: 1
Read mode : Secure
Utilize accurate stream : Yes
Defeat audio cache : Yes
Make use of C2 pointers : No
Read offset correction : 6
Overread into Lead-In and Lead-Out : No
Fill up missing offset samples with silence : Yes
Delete leading and trailing silent blocks : No
Null samples used in CRC calculations : Yes
Used interface : Native Win32 interface for Win NT & 2000
Gap handling : Appended to previous track
Used output format : User Defined Encoder
Selected bitrate : 1024 kBit/s
Quality : High
Add ID3 tag : No
Command line compressor : C:\Program Files\Exact Audio Copy\Flac\flac.exe
Additional command line options : -8 -V -T "ARTIST=%artist%" -T "TITLE=%title%" -T "ALBUM=%albumtitle%" -T "DATE=%year%" -T "TRACKNUMBER=%tracknr%" -T "GENRE=%genre%" -T "PERFORMER=%albuminterpret%" -T "COMPOSER=%composer%" %haslyrics%--tag-from-file=LYRICS="%lyricsfile%"%haslyrics% -T "ALBUMARTIST=%albumartist%" -T "DISCNUMBER=%cdnumber%" -T "TOTALDISCS=%totalcds%" -T "TOTALTRACKS=%numtracks%" -T "COMMENT=%comment%" %source% -o %dest%
TOC of the extracted CD
Track | Start | Length | Start sector | End sector
---------------------------------------------------------
1 | 0:00.00 | 5:32.17 | 0 | 24916
2 | 5:32.17 | 4:08.04 | 24917 | 43520
3 | 9:40.21 | 3:18.71 | 43521 | 58441
4 | 12:59.17 | 3:21.42 | 58442 | 73558
5 | 16:20.59 | 5:45.05 | 73559 | 99438
6 | 22:05.64 | 3:42.09 | 99439 | 116097
7 | 25:47.73 | 2:43.11 | 116098 | 128333
8 | 28:31.09 | 4:07.11 | 128334 | 146869
9 | 32:38.20 | 3:57.44 | 146870 | 164688
10 | 36:35.64 | 2:25.04 | 164689 | 175567
11 | 39:00.68 | 4:38.23 | 175568 | 196440
Track 1
Filename C:\EAC Rips\01 - The House Of The Rising Sun.wav
Pre-gap length 0:00:02.00
Peak level 99.6 %
Extraction speed 2.8 X
Track quality 100.0 %
Test CRC 66D1F484
Copy CRC 66D1F484
Track not present in AccurateRip database
Copy OK
Track 2
Filename C:\EAC Rips\02 - Summertime.wav
Pre-gap length 0:00:00.24
Peak level 99.9 %
Extraction speed 3.0 X
Track quality 100.0 %
Test CRC A3962F6D
Copy CRC A3962F6D
Track not present in AccurateRip database
Copy OK
Track 3
Filename C:\EAC Rips\03 - What Am I Living For.wav
Pre-gap length 0:00:02.52
Peak level 100.0 %
Extraction speed 3.1 X
Track quality 100.0 %
Test CRC 3F1FE3BB
Copy CRC 3F1FE3BB
Track not present in AccurateRip database
Copy OK
Track 4
Filename C:\EAC Rips\04 - Trouble Blues.wav
Pre-gap length 0:00:02.04
Peak level 99.9 %
Extraction speed 3.3 X
Track quality 100.0 %
Test CRC EE7BCE5D
Copy CRC EE7BCE5D
Track not present in AccurateRip database
Copy OK
Track 5
Filename C:\EAC Rips\05 - I Love You More Than You'll Ever Know.wav
Pre-gap length 0:00:01.93
Peak level 100.0 %
Extraction speed 3.8 X
Track quality 100.0 %
Test CRC 183EF22E
Copy CRC 183EF22E
Track not present in AccurateRip database
Copy OK
Track 6
Filename C:\EAC Rips\06 - St. James Infirmary.wav
Pre-gap length 0:00:02.52
Peak level 100.0 %
Extraction speed 3.0 X
Track quality 99.9 %
Test CRC 142A0F7B
Copy CRC 142A0F7B
Track not present in AccurateRip database
Copy OK
Track 7
Filename C:\EAC Rips\07 - Nobody's Fault But Mine.wav
Pre-gap length 0:00:01.72
Peak level 100.0 %
Extraction speed 3.6 X
Track quality 100.0 %
Test CRC 5501914E
Copy CRC 5501914E
Track not present in AccurateRip database
Copy OK
Track 8
Filename C:\EAC Rips\08 - Willow Weep For Me.wav
Pre-gap length 0:00:01.68
Peak level 99.6 %
Extraction speed 4.0 X
Track quality 100.0 %
Test CRC 01C11E0F
Copy CRC 01C11E0F
Track not present in AccurateRip database
Copy OK
Track 9
Filename C:\EAC Rips\09 - See See Rider.wav
Pre-gap length 0:00:02.56
Peak level 99.9 %
Extraction speed 4.2 X
Track quality 100.0 %
Test CRC 45C8F776
Copy CRC 45C8F776
Track not present in AccurateRip database
Copy OK
Track 10
Filename C:\EAC Rips\10 - I Want A Little Sugar In My Bowl.wav
Pre-gap length 0:00:02.72
Peak level 100.0 %
Extraction speed 3.0 X
Track quality 99.9 %
Test CRC 3FAF75D6
Copy CRC 3FAF75D6
Track not present in AccurateRip database
Copy OK
Track 11
Filename C:\EAC Rips\11 - Hey Jude.wav
Pre-gap length 0:00:03.74
Peak level 100.0 %
Extraction speed 4.5 X
Track quality 100.0 %
Test CRC 709237CD
Copy CRC 709237CD
Track not present in AccurateRip database
Copy OK
None of the tracks are present in the AccurateRip database
No errors occurred
End of status report
==== Log checksum 8ECEBDD748497FC5D651F6DDCBC3301B53BF4278EBF1EAF151908B0CDAA93361 ====
 
Содержание индексной карты (.CUE)
REM GENRE Jazz
REM DATE 1971
REM DISCID 980A3B0B
REM COMMENT "ExactAudioCopy v1.0b3"
PERFORMER "Sammy & Freedom Unity"
TITLE "Salute to Soul"
FILE "01 - The House of the Rising Sun.wav" WAVE
TRACK 01 AUDIO
TITLE "The House of the Rising Sun"
PERFORMER "Sammy & Freedom Unity"
INDEX 01 00:00:00
TRACK 02 AUDIO
TITLE "Summertime"
PERFORMER "Sammy & Freedom Unity"
INDEX 00 05:31:74
FILE "02 - Summertime.wav" WAVE
INDEX 01 00:00:00
TRACK 03 AUDIO
TITLE "What Am I Living For"
PERFORMER "Sammy & Freedom Unity"
INDEX 00 04:05:40
FILE "03 - What Am I Living For.wav" WAVE
INDEX 01 00:00:00
TRACK 04 AUDIO
TITLE "Trouble Blues"
PERFORMER "Sammy & Freedom Unity"
INDEX 00 03:16:68
FILE "04 - Trouble Blues.wav" WAVE
INDEX 01 00:00:00
TRACK 05 AUDIO
TITLE "I Love You More Than You'll Ever Know"
PERFORMER "Sammy & Freedom Unity"
INDEX 00 03:19:47
FILE "05 - I Love You More Than You'll Ever Know.wav" WAVE
INDEX 01 00:00:00
TRACK 06 AUDIO
TITLE "St. James Infirmary"
PERFORMER "Sammy & Freedom Unity"
INDEX 00 05:42:41
FILE "06 - St. James Infirmary.wav" WAVE
INDEX 01 00:00:00
TRACK 07 AUDIO
TITLE "Nobody's Fault But Mine"
PERFORMER "Sammy & Freedom Unity"
INDEX 00 03:40:30
FILE "07 - Nobody's Fault But Mine.wav" WAVE
INDEX 01 00:00:00
TRACK 08 AUDIO
TITLE "Willow Weep for Me"
PERFORMER "Sammy & Freedom Unity"
INDEX 00 02:41:35
FILE "08 - Willow Weep for Me.wav" WAVE
INDEX 01 00:00:00
TRACK 09 AUDIO
TITLE "See See Rider"
PERFORMER "Sammy & Freedom Unity"
INDEX 00 04:04:44
FILE "09 - See See Rider.wav" WAVE
INDEX 01 00:00:00
TRACK 10 AUDIO
TITLE "I Want a Little Sugar in My Bowl"
PERFORMER "Sammy & Freedom Unity"
INDEX 00 03:54:65
FILE "10 - I Want a Little Sugar in My Bowl.wav" WAVE
INDEX 01 00:00:00
TRACK 11 AUDIO
TITLE "Hey Jude"
PERFORMER "Sammy & Freedom Unity"
INDEX 00 02:21:23
FILE "11 - Hey Jude.wav" WAVE
INDEX 01 00:00:00
 
Об исполнителе (группе)
Sammy is the pseudonym of Masami Chino, prolific Japanese female rock singer from Soul to Psychedelic rock who was active in the seventies. She sings it well known Jazz, Pop, Rock, Soul, Rhythm & Blues from British and American covers song and jazz standards (her voice tone can be situated between Janis Joplin and Grace Slick). Introduced in the Japanese jazz rock scene, she started to work with the legendary Freedom Unity (a jazz quartet formed by Hiromasa Suzuki and Akira Ishikawa) and collaborated with Jiro Inagaki on several albums as Wandering Birds (1971). Later, she also worked with Akira Ishikawa' Count Buffalo band for Soul & Soul (1972). It's the second collaboration with The Freedom Unity, after Dynamic Rock (1971), surrounded by a string section plus additional musicians and arranged by Hiromasa Suzuki.
 
Об альбоме (сборнике)
Sammy sings soul – not Sammy Davis Jr, but this ultra-hip Japanese singer from the early 70s – a female vocalist who works here with great backings from the Freedom Unity ensemble! The tunes are all numbers from American and British sources of the 50s and 60s – tunes you'd know from versions on labels like Stax or Atlantic, but redone here with some really groovy new inflections – including cool arrangements from Freedom Unity, with a nice blend of strings and soulful jazz elements – including some especially great keyboards and reeds on some numbers! Sammy sings in English, but with this unusual accent that really transforms the tunes – and titles include versions of "Hey Jude", "I Want A Little Sugar In My Bowl", "I Love You More Than You'll Ever Know", "Summertime", "What Am I Living For", "House Of The Rising Sun", and "Nobody's Fault But Mine".
Приватный:
Нет (DHT включён)
Размер:
267.60 Мб (280,599,987 байт) » файлов: 17
Участники:
0 раздают, 0 качают (0 участников всего)
Внешние участники:
5 раздают, 1 качают (6 участников всего) [ Обновить ]
Есть вопросы - пишите личное сообщение пользователю M0p94ok.
05:40
91
Нет комментариев. Ваш будет первым!