Поиск

(Jazz-Funk, Jazz-Rock) [CD] Toshiaki Yokota & Primitive Community - Primitive Community - 1970 (2011 Japan Mini-LP Edition), FLAC (tracks+.cue), lossless

(Jazz-Funk, Jazz-Rock) [CD] Toshiaki Yokota & Primitive Community - Primitive Community - 1970 (2011 Japan Mini-LP Edition), FLAC (tracks+.cue), lossless
Треклист:
Toshiaki Yokota & Primitive Community - Primitive Community
Жанр: Jazz-Funk, Jazz-Rock
Носитель: CD
Страна-производитель диска (релиза): Япония
Год издания: 1970 (2011)
Издатель (лейбл): Think! Records (Deep Jazz Reality)
Номер по каталогу: DTHK-001
Аудиокодек: FLAC (*.flac)
Тип рипа: tracks+.cue
Битрейт аудио: lossless
Продолжительность: 38:30
Источник (релизер): wikieup (what)
Наличие сканов в содержимом раздачи: нет
Треклист:
01. Kinjirareta Gishiki (Yokota) - 10:23
02. Akuma no Namida (Kawachi) - 8:00
03. Hare Krishna (Kawachi) - 8:26
04. Savanna (Yokota) - 6:26
05. Flying (Lennon-McCartney-Harrison-Starkey) - 2:14
06. Black Narcissus (Yokota) - 3:01
Состав:
Toshiaki Yokota - flute, alto flute, piccolo, bass flute, recorder
Shunzo Ono - trumpet (#2)
Mikio Mizutani - electric guitar
Kimio Koizumi - electric bass, double bass
Yusuke Hoguchi - Hammond organ
Larry Sunaga, Pedro Umemura, Tadaomi Anai, Yoshinori Nomi, Fujio Saito, Minoru Ishiyama - percussion
Chito Kawachi - drums
Recorded on November 27, 1970.
 
Лог создания рипа
Exact Audio Copy V1.0 beta 1 from 15. November 2010
EAC extraction logfile from 22. May 2012, 11:48
Toshiaki Yokota & Primitive Community / Toshiaki Yokota & Primitive Community [2011 Reissue]
Used drive : Optiarc DVD+-RW AD-7580A Adapter: 0 ID: 0
Read mode : Secure
Utilize accurate stream : Yes
Defeat audio cache : Yes
Make use of C2 pointers : No
Read offset correction : 6
Overread into Lead-In and Lead-Out : No
Fill up missing offset samples with silence : Yes
Delete leading and trailing silent blocks : No
Null samples used in CRC calculations : Yes
Used interface : Native Win32 interface for Win NT & 2000
Gap handling : Appended to previous track
Used output format : User Defined Encoder
Selected bitrate : 896 kBit/s
Quality : High
Add ID3 tag : No
Command line compressor : C:\Program Files\Exact Audio Copy\FLAC\FLAC.EXE
Additional command line options : -6 -V -T "ARTIST=%a" -T "TITLE=%t" -T "ALBUM=%g" -T "DATE=%y" -T "TRACKNUMBER=%n" -T "GENRE=%m" -T "COMMENT=%e" %j--picture="%i"%j %s -o %d
TOC of the extracted CD
Track | Start | Length | Start sector | End sector
---------------------------------------------------------
1 | 0:00.00 | 10:23.16 | 0 | 46740
2 | 10:23.16 | 8:00.08 | 46741 | 82748
3 | 18:23.24 | 8:25.57 | 82749 | 120680
4 | 26:49.06 | 6:25.51 | 120681 | 149606
5 | 33:14.57 | 2:13.42 | 149607 | 159623
6 | 35:28.24 | 3:01.37 | 159624 | 173235
Track 1
Filename C:\Documents and Settings\jeffrey.baldwin\Desktop\FLAC Rips\01 禁じられた儀式 [Kinjirareta Gishiki].wav
Pre-gap length 0:00:02.00
Peak level 97.7 %
Extraction speed 3.1 X
Track quality 100.0 %
Test CRC 48AA99D8
Copy CRC 48AA99D8
Track not present in AccurateRip database
Copy OK
Track 2
Filename C:\Documents and Settings\jeffrey.baldwin\Desktop\FLAC Rips\02 悪魔の涙 [Akuma no Namida].wav
Pre-gap length 0:00:04.78
Peak level 97.7 %
Extraction speed 3.7 X
Track quality 100.0 %
Test CRC F0A1C5DA
Copy CRC F0A1C5DA
Track not present in AccurateRip database
Copy OK
Track 3
Filename C:\Documents and Settings\jeffrey.baldwin\Desktop\FLAC Rips\03 ハリクリシュナ [Hare Krishna].wav
Pre-gap length 0:00:04.48
Peak level 97.7 %
Extraction speed 4.2 X
Track quality 100.0 %
Test CRC B340EEA1
Copy CRC B340EEA1
Track not present in AccurateRip database
Copy OK
Track 4
Filename C:\Documents and Settings\jeffrey.baldwin\Desktop\FLAC Rips\04 サバンナ [Savanna].wav
Pre-gap length 0:00:05.64
Peak level 97.7 %
Extraction speed 4.5 X
Track quality 100.0 %
Test CRC BE397AD4
Copy CRC BE397AD4
Track not present in AccurateRip database
Copy OK
Track 5
Filename C:\Documents and Settings\jeffrey.baldwin\Desktop\FLAC Rips\05 フライング [Flying].wav
Pre-gap length 0:00:05.82
Peak level 97.7 %
Extraction speed 4.0 X
Track quality 100.0 %
Test CRC 2348F985
Copy CRC 2348F985
Track not present in AccurateRip database
Copy OK
Track 6
Filename C:\Documents and Settings\jeffrey.baldwin\Desktop\FLAC Rips\06 ブラック・ナルシス [Black Narcisse].wav
Pre-gap length 0:00:05.80
Peak level 97.7 %
Extraction speed 4.4 X
Track quality 100.0 %
Test CRC EA068BB3
Copy CRC EA068BB3
Track not present in AccurateRip database
Copy OK
None of the tracks are present in the AccurateRip database
No errors occurred
End of status report
==== Log checksum F9051B7B2BF4687805A2CB0C65BFED09C86C7DDABB07FB05251CD2BE1D9F870F ====
 
Содержание индексной карты (.CUE)
REM GENRE Jazz
REM DATE 1970
REM DISCID 3E090506
REM COMMENT "ExactAudioCopy v1.0b1"
PERFORMER "Toshiaki Yokota & Primitive Community"
TITLE "Primitive Community"
FILE "01 - Kinjirareta Gishiki.wav" WAVE
TRACK 01 AUDIO
TITLE "Kinjirareta Gishiki"
PERFORMER "Toshiaki Yokota & Primitive Community"
INDEX 01 00:00:00
TRACK 02 AUDIO
TITLE "Akuma no Namida"
PERFORMER "Toshiaki Yokota & Primitive Community"
INDEX 00 10:18:32
FILE "02 - Akuma no Namida.wav" WAVE
INDEX 01 00:00:00
TRACK 03 AUDIO
TITLE "Hare Krishna"
PERFORMER "Toshiaki Yokota & Primitive Community"
INDEX 00 07:55:47
FILE "03 - Hare Krishna.wav" WAVE
INDEX 01 00:00:00
TRACK 04 AUDIO
TITLE "Savanna"
PERFORMER "Toshiaki Yokota & Primitive Community"
INDEX 00 08:20:09
FILE "04 - Savanna.wav" WAVE
INDEX 01 00:00:00
TRACK 05 AUDIO
TITLE "Flying"
PERFORMER "Toshiaki Yokota & Primitive Community"
INDEX 00 06:19:64
FILE "05 - Flying.wav" WAVE
INDEX 01 00:00:00
TRACK 06 AUDIO
TITLE "Black Narcissus"
PERFORMER "Toshiaki Yokota & Primitive Community"
INDEX 00 02:07:57
FILE "06 - Black Narcissus.wav" WAVE
INDEX 01 00:00:00
Приватный:
Нет (DHT включён)
Размер:
252.99 Мб (265,280,470 байт) » файлов: 13
Участники:
0 раздают, 0 качают (0 участников всего)
Внешние участники:
5 раздают, 2 качают (7 участников всего) [ Обновить ]
Есть вопросы - пишите личное сообщение пользователю M0p94ok.
05:40
67
Нет комментариев. Ваш будет первым!