Поиск

(Soul) [CD] Barry White - The Very Best Of Barry White (3CD) - 1997, FLAC (tracks+.cue), lossless

(Soul) [CD] Barry White - The Very Best Of Barry White (3CD) - 1997, FLAC (tracks+.cue), lossless
Треклист:
Barry White - The Very Best Of Barry White (3CD)

Жанр: Soul
Носитель: CD
Год издания: 1997
Издатель (лейбл): Arcade
Номер по каталогу: 3027082
Аудиокодек: FLAC (*.flac)
Тип рипа: tracks+.cue
Битрейт аудио: lossless
Продолжительность: 72:44 / 69:19 / 64:54
Источник (релизер): What.cd (Stelios)
Наличие сканов в содержимом раздачи: да 
 
 
CD 1 - Barry White
Треклист:
01. It Ain't Love, Babe (Until You Give It) (4:11)
02. Any Fool Could See (You Were Meant For Me) (4:44)
03. I Believe In Love (8:06)
04. I Found Love (4:13)
05. Sheet Music (5:43)
06. She's Everything To Me (3:32)
07. Your Love, Your Love (4:22)
08. America (5:44)
09. Hung Up In Your Love (4:12)
10. I Want You (4:22)
11. Louie Louie (7:24)
12. Lady, Sweet Lady (5:40)
13. Your The One I Need (4:21)
14. Change (6:10)
 
 
Лог создания рипа
Exact Audio Copy V1.0 beta 3 from 29. August 2011
EAC extraction logfile from 15. March 2014, 15:27
Barry White / The Very Best Of - Barry White
Used drive : PIONEER BD-ROM BDC-TD03 Adapter: 0 ID: 1
Read mode : Secure
Utilize accurate stream : Yes
Defeat audio cache : Yes
Make use of C2 pointers : No
Read offset correction : 667
Overread into Lead-In and Lead-Out : No
Fill up missing offset samples with silence : Yes
Delete leading and trailing silent blocks : No
Null samples used in CRC calculations : Yes
Used interface : Native Win32 interface for Win NT & 2000
Gap handling : Appended to previous track
Used output format : User Defined Encoder
Selected bitrate : 1024 kBit/s
Quality : High
Add ID3 tag : No
Command line compressor : C:\Program Files (x86)\Exact Audio Copy\Flac\flac.exe
Additional command line options : -8 -V -T "ARTIST=%artist%" -T "TITLE=%title%" -T "ALBUM=%albumtitle%" -T "DATE=%year%" -T "TRACKNUMBER=%tracknr%" -T "GENRE=%genre%" -T "COMMENT=%comment%" -T "BAND=%albuminterpret%" -T "ALBUMARTIST=%albuminterpret%" -T "COMPOSER=%composer%" %haslyrics%--tag-from-file=LYRICS="%lyricsfile%"%haslyrics% -T "DISCNUMBER=%cdnumber%" -T "TOTALDISCS=%totalcds%" -T "TOTALTRACKS=%numtracks%" %hascover%--picture="%coverfile%"%hascover% %source% -o %dest%
TOC of the extracted CD
Track | Start | Length | Start sector | End sector
---------------------------------------------------------
1 | 0:00.32 | 4:10.50 | 32 | 18831
2 | 4:11.07 | 4:44.05 | 18832 | 40136
3 | 8:55.12 | 8:06.23 | 40137 | 76609
4 | 17:01.35 | 4:12.57 | 76610 | 95566
5 | 21:14.17 | 5:43.18 | 95567 | 121309
6 | 26:57.35 | 3:31.60 | 121310 | 137194
7 | 30:29.20 | 4:22.20 | 137195 | 156864
8 | 34:51.40 | 5:43.67 | 156865 | 182656
9 | 40:35.32 | 4:11.58 | 182657 | 201539
10 | 44:47.15 | 4:22.22 | 201540 | 221211
11 | 49:09.37 | 7:23.53 | 221212 | 254489
12 | 56:33.15 | 5:40.27 | 254490 | 280016
13 | 62:13.42 | 4:20.65 | 280017 | 299581
14 | 66:34.32 | 6:10.10 | 299582 | 327341
Track 1
Filename C:\Users\Spleeneuze\Music\# Uploads #\Barry White - The Very Best Of - Love Unlimited - Love Unlimited Orchestra[1997][FLAC]-Spleeneuze\Cd 1 - Barry White\01. It Ain't Love, Babe (Until You Give It).wav
Pre-gap length 0:00:02.42
Peak level 94.3 %
Extraction speed 2.6 X
Track quality 99.9 %
Test CRC DF990ABF
Copy CRC DF990ABF
Accurately ripped (confidence 1) [12520B89] (AR v1)
Copy OK
Track 2
Filename C:\Users\Spleeneuze\Music\# Uploads #\Barry White - The Very Best Of - Love Unlimited - Love Unlimited Orchestra[1997][FLAC]-Spleeneuze\Cd 1 - Barry White\02. Any Fool Could See (You Were Meant For Me).wav
Peak level 99.6 %
Extraction speed 3.3 X
Track quality 100.0 %
Test CRC 461CE977
Copy CRC 461CE977
Accurately ripped (confidence 1) [E4DA948E] (AR v1)
Copy OK
Track 3
Filename C:\Users\Spleeneuze\Music\# Uploads #\Barry White - The Very Best Of - Love Unlimited - Love Unlimited Orchestra[1997][FLAC]-Spleeneuze\Cd 1 - Barry White\03. I Believe In Love.wav
Peak level 97.3 %
Extraction speed 3.9 X
Track quality 100.0 %
Test CRC C950E4B6
Copy CRC C950E4B6
Accurately ripped (confidence 1) [B6207D40] (AR v1)
Copy OK
Track 4
Filename C:\Users\Spleeneuze\Music\# Uploads #\Barry White - The Very Best Of - Love Unlimited - Love Unlimited Orchestra[1997][FLAC]-Spleeneuze\Cd 1 - Barry White\04. I Found Love.wav
Peak level 96.0 %
Extraction speed 4.0 X
Track quality 100.0 %
Test CRC 4BBD95B4
Copy CRC 4BBD95B4
Accurately ripped (confidence 1) [7FB10EE0] (AR v1)
Copy OK
Track 5
Filename C:\Users\Spleeneuze\Music\# Uploads #\Barry White - The Very Best Of - Love Unlimited - Love Unlimited Orchestra[1997][FLAC]-Spleeneuze\Cd 1 - Barry White\05. Sheet Music.wav
Peak level 89.7 %
Extraction speed 4.4 X
Track quality 100.0 %
Test CRC 1D27CC68
Copy CRC 1D27CC68
Cannot be verified as accurate (confidence 1) [9B5AA300], AccurateRip returned [4B837D79] (AR v2)
Copy OK
Track 6
Filename C:\Users\Spleeneuze\Music\# Uploads #\Barry White - The Very Best Of - Love Unlimited - Love Unlimited Orchestra[1997][FLAC]-Spleeneuze\Cd 1 - Barry White\06. She's Everything To Me.wav
Peak level 99.2 %
Extraction speed 3.8 X
Track quality 99.9 %
Test CRC 98038EE0
Copy CRC 98038EE0
Accurately ripped (confidence 2) [D59AFAED] (AR v1)
Copy OK
Track 7
Filename C:\Users\Spleeneuze\Music\# Uploads #\Barry White - The Very Best Of - Love Unlimited - Love Unlimited Orchestra[1997][FLAC]-Spleeneuze\Cd 1 - Barry White\07. Your Love, Your Love.wav
Peak level 98.5 %
Extraction speed 4.1 X
Track quality 99.9 %
Test CRC 2420059D
Copy CRC 2420059D
Accurately ripped (confidence 2) [CB8D26FE] (AR v1)
Copy OK
Track 8
Filename C:\Users\Spleeneuze\Music\# Uploads #\Barry White - The Very Best Of - Love Unlimited - Love Unlimited Orchestra[1997][FLAC]-Spleeneuze\Cd 1 - Barry White\08. America.wav
Peak level 100.0 %
Extraction speed 5.0 X
Track quality 100.0 %
Test CRC BB11522C
Copy CRC BB11522C
Accurately ripped (confidence 1) [DC046115] (AR v1)
Copy OK
Track 9
Filename C:\Users\Spleeneuze\Music\# Uploads #\Barry White - The Very Best Of - Love Unlimited - Love Unlimited Orchestra[1997][FLAC]-Spleeneuze\Cd 1 - Barry White\09. Hung Up In Your Love.wav
Peak level 95.8 %
Extraction speed 5.0 X
Track quality 100.0 %
Test CRC 3FED26F4
Copy CRC 3FED26F4
Accurately ripped (confidence 2) [D2279CD2] (AR v1)
Copy OK
Track 10
Filename C:\Users\Spleeneuze\Music\# Uploads #\Barry White - The Very Best Of - Love Unlimited - Love Unlimited Orchestra[1997][FLAC]-Spleeneuze\Cd 1 - Barry White\10. I Want You.wav
Peak level 95.3 %
Extraction speed 4.6 X
Track quality 99.9 %
Test CRC 29D65762
Copy CRC 29D65762
Accurately ripped (confidence 2) [FFECE1FA] (AR v1)
Copy OK
Track 11
Filename C:\Users\Spleeneuze\Music\# Uploads #\Barry White - The Very Best Of - Love Unlimited - Love Unlimited Orchestra[1997][FLAC]-Spleeneuze\Cd 1 - Barry White\11. Louie Louie.wav
Peak level 100.0 %
Extraction speed 5.6 X
Track quality 100.0 %
Test CRC 0618AA84
Copy CRC 0618AA84
Accurately ripped (confidence 2) [854B5AEA] (AR v1)
Copy OK
Track 12
Filename C:\Users\Spleeneuze\Music\# Uploads #\Barry White - The Very Best Of - Love Unlimited - Love Unlimited Orchestra[1997][FLAC]-Spleeneuze\Cd 1 - Barry White\12. Lady, Sweet Lady.wav
Peak level 99.7 %
Extraction speed 5.8 X
Track quality 100.0 %
Test CRC E2AEF813
Copy CRC E2AEF813
Accurately ripped (confidence 2) [21E916CA] (AR v1)
Copy OK
Track 13
Filename C:\Users\Spleeneuze\Music\# Uploads #\Barry White - The Very Best Of - Love Unlimited - Love Unlimited Orchestra[1997][FLAC]-Spleeneuze\Cd 1 - Barry White\13. Your The One I Need.wav
Peak level 99.6 %
Extraction speed 5.7 X
Track quality 100.0 %
Test CRC A89BADA3
Copy CRC A89BADA3
Accurately ripped (confidence 2) [AA9ADC32] (AR v1)
Copy OK
Track 14
Filename C:\Users\Spleeneuze\Music\# Uploads #\Barry White - The Very Best Of - Love Unlimited - Love Unlimited Orchestra[1997][FLAC]-Spleeneuze\Cd 1 - Barry White\14. Change.wav
Peak level 99.9 %
Extraction speed 6.1 X
Track quality 100.0 %
Test CRC C8FC399D
Copy CRC C8FC399D
Cannot be verified as accurate (confidence 1) [86E3B63E], AccurateRip returned [624A2A91] (AR v2)
Copy OK
12 track(s) accurately ripped
2 track(s) could not be verified as accurate
Some tracks could not be verified as accurate
No errors occurred
End of status report
==== Log checksum DCE16BF94DE9FF1758834B667DD146CF6008D26706A06F79FF2C3B8248E153D1 ====
 
Содержание индексной карты (.CUE)
REM GENRE Soul
REM DATE 1997
REM DISCID D8110C0E
REM COMMENT "ExactAudioCopy v1.0b3"
PERFORMER "Barry White"
TITLE "The Very Best Of - Barry White"
FILE "01. It Ain't Love, Babe (Until You Give It).wav" WAVE
TRACK 01 AUDIO
TITLE "It Ain't Love, Babe (Until You Give It)"
PERFORMER "Barry White"
PREGAP 00:00:32
INDEX 01 00:00:00
FILE "02. Any Fool Could See (You Were Meant For Me).wav" WAVE
TRACK 02 AUDIO
TITLE "Any Fool Could See (You Were Meant For Me)"
PERFORMER "Barry White"
INDEX 01 00:00:00
FILE "03. I Believe In Love.wav" WAVE
TRACK 03 AUDIO
TITLE "I Believe In Love"
PERFORMER "Barry White"
INDEX 01 00:00:00
FILE "04. I Found Love.wav" WAVE
TRACK 04 AUDIO
TITLE "I Found Love"
PERFORMER "Barry White"
INDEX 01 00:00:00
FILE "05. Sheet Music.wav" WAVE
TRACK 05 AUDIO
TITLE "Sheet Music"
PERFORMER "Barry White"
INDEX 01 00:00:00
FILE "06. She's Everything To Me.wav" WAVE
TRACK 06 AUDIO
TITLE "She's Everything To Me"
PERFORMER "Barry White"
INDEX 01 00:00:00
FILE "07. Your Love, Your Love.wav" WAVE
TRACK 07 AUDIO
TITLE "Your Love, Your Love"
PERFORMER "Barry White"
INDEX 01 00:00:00
FILE "08. America.wav" WAVE
TRACK 08 AUDIO
TITLE "America"
PERFORMER "Barry White"
INDEX 01 00:00:00
FILE "09. Hung Up In Your Love.wav" WAVE
TRACK 09 AUDIO
TITLE "Hung Up In Your Love"
PERFORMER "Barry White"
INDEX 01 00:00:00
FILE "10. I Want You.wav" WAVE
TRACK 10 AUDIO
TITLE "I Want You"
PERFORMER "Barry White"
INDEX 01 00:00:00
FILE "11. Louie Louie.wav" WAVE
TRACK 11 AUDIO
TITLE "Louie Louie"
PERFORMER "Barry White"
INDEX 01 00:00:00
FILE "12. Lady, Sweet Lady.wav" WAVE
TRACK 12 AUDIO
TITLE "Lady, Sweet Lady"
PERFORMER "Barry White"
INDEX 01 00:00:00
FILE "13. Your The One I Need.wav" WAVE
TRACK 13 AUDIO
TITLE "Your The One I Need"
PERFORMER "Barry White"
INDEX 01 00:00:00
FILE "14. Change.wav" WAVE
TRACK 14 AUDIO
TITLE "Change"
PERFORMER "Barry White"
INDEX 01 00:00:00
 
CD 2 - Love Unlimited
Треклист:
01. I Did It For Love (4:49)
02. Never, Never Say Goodbye (5:34)
03. Whisper You Love Me (5:08)
04. He's Mine (No You Can't Have Him) (3:33)
05. I Can't Let Him Down (3:24)
06. I Guess I'm Just Another Girl In Love (5:04)
07. He's All I've Got (7:22)
08. I'm So Glad That I'm A Woman (4:04)
09. High Steppin', Hip Dressing Fella (You Got It Together) (5:35)
10. When I'm In Your Arms, Everything's OK (4:34)
11. If You Want Me, Say It (5:40)
12. I'm Givin' You A Love (Every Man Is Searchin' For) (4:33)
13. Gotta Be Where You Are (4:18)
14. I'm Hits Woman (5:40)
 
 
Лог создания рипа
Exact Audio Copy V1.0 beta 3 from 29. August 2011
EAC extraction logfile from 15. March 2014, 19:40
Barry White / The Very Best Of - Love Unlimited
Used drive : PIONEER BD-ROM BDC-TD03 Adapter: 0 ID: 1
Read mode : Secure
Utilize accurate stream : Yes
Defeat audio cache : Yes
Make use of C2 pointers : No
Read offset correction : 667
Overread into Lead-In and Lead-Out : No
Fill up missing offset samples with silence : Yes
Delete leading and trailing silent blocks : No
Null samples used in CRC calculations : Yes
Used interface : Native Win32 interface for Win NT & 2000
Gap handling : Appended to previous track
Used output format : User Defined Encoder
Selected bitrate : 1024 kBit/s
Quality : High
Add ID3 tag : No
Command line compressor : C:\Program Files (x86)\Exact Audio Copy\Flac\flac.exe
Additional command line options : -8 -V -T "ARTIST=%artist%" -T "TITLE=%title%" -T "ALBUM=%albumtitle%" -T "DATE=%year%" -T "TRACKNUMBER=%tracknr%" -T "GENRE=%genre%" -T "COMMENT=%comment%" -T "BAND=%albuminterpret%" -T "ALBUMARTIST=%albuminterpret%" -T "COMPOSER=%composer%" %haslyrics%--tag-from-file=LYRICS="%lyricsfile%"%haslyrics% -T "DISCNUMBER=%cdnumber%" -T "TOTALDISCS=%totalcds%" -T "TOTALTRACKS=%numtracks%" %hascover%--picture="%coverfile%"%hascover% %source% -o %dest%
TOC of the extracted CD
Track | Start | Length | Start sector | End sector
---------------------------------------------------------
1 | 0:00.32 | 4:49.30 | 32 | 21736
2 | 4:49.62 | 5:33.40 | 21737 | 46751
3 | 10:23.27 | 5:08.08 | 46752 | 69859
4 | 15:31.35 | 3:32.72 | 69860 | 85831
5 | 19:04.32 | 3:23.63 | 85832 | 101119
6 | 22:28.20 | 5:03.52 | 101120 | 123896
7 | 27:31.72 | 7:22.33 | 123897 | 157079
8 | 34:54.30 | 4:04.05 | 157080 | 175384
9 | 38:58.35 | 5:35.32 | 175385 | 200541
10 | 44:33.67 | 4:34.23 | 200542 | 221114
11 | 49:08.15 | 5:40.32 | 221115 | 246646
12 | 54:48.47 | 4:32.43 | 246647 | 267089
13 | 59:21.15 | 4:17.67 | 267090 | 286431
14 | 63:39.07 | 5:39.68 | 286432 | 311924
Track 1
Filename C:\Users\Spleeneuze\Music\# Uploads #\Barry White - The Very Best Of - Love Unlimited - Love Unlimited Orchestra[1997][FLAC]-Spleeneuze\Cd 2 - Love Unlimited\01. I Did It For Love.wav
Pre-gap length 0:00:02.42
Peak level 90.5 %
Extraction speed 0.6 X
Track quality 99.8 %
Test CRC 284E5970
Copy CRC 284E5970
Accurately ripped (confidence 2) [71A5558C] (AR v1)
Copy OK
Track 2
Filename C:\Users\Spleeneuze\Music\# Uploads #\Barry White - The Very Best Of - Love Unlimited - Love Unlimited Orchestra[1997][FLAC]-Spleeneuze\Cd 2 - Love Unlimited\02. Never, Never Say Goodbye.wav
Peak level 90.1 %
Extraction speed 0.3 X
Track quality 99.4 %
Test CRC 7FA52284
Copy CRC 7FA52284
Accurately ripped (confidence 2) [15F0F408] (AR v1)
Copy OK
Track 3
Filename C:\Users\Spleeneuze\Music\# Uploads #\Barry White - The Very Best Of - Love Unlimited - Love Unlimited Orchestra[1997][FLAC]-Spleeneuze\Cd 2 - Love Unlimited\03. Whisper You Love Me.wav
Peak level 90.4 %
Extraction speed 1.0 X
Track quality 99.8 %
Test CRC FF65A85B
Copy CRC FF65A85B
Accurately ripped (confidence 2) [E39686ED] (AR v1)
Copy OK
Track 4
Filename C:\Users\Spleeneuze\Music\# Uploads #\Barry White - The Very Best Of - Love Unlimited - Love Unlimited Orchestra[1997][FLAC]-Spleeneuze\Cd 2 - Love Unlimited\04. He's Mine (No You Can't Have Him).wav
Peak level 91.5 %
Extraction speed 1.3 X
Track quality 99.9 %
Test CRC B3DA68DE
Copy CRC B3DA68DE
Accurately ripped (confidence 2) [55B58F8A] (AR v1)
Copy OK
Track 5
Filename C:\Users\Spleeneuze\Music\# Uploads #\Barry White - The Very Best Of - Love Unlimited - Love Unlimited Orchestra[1997][FLAC]-Spleeneuze\Cd 2 - Love Unlimited\05. I Can't Let Him Down.wav
Peak level 92.7 %
Extraction speed 1.3 X
Track quality 99.9 %
Test CRC 9BE19BC7
Copy CRC 9BE19BC7
Accurately ripped (confidence 2) [BD2AF1F8] (AR v1)
Copy OK
Track 6
Filename C:\Users\Spleeneuze\Music\# Uploads #\Barry White - The Very Best Of - Love Unlimited - Love Unlimited Orchestra[1997][FLAC]-Spleeneuze\Cd 2 - Love Unlimited\06. I Guess I'm Just Another Girl In Love.wav
Peak level 91.1 %
Extraction speed 1.7 X
Track quality 100.0 %
Test CRC 221967F0
Copy CRC 221967F0
Accurately ripped (confidence 2) [36DC9EA2] (AR v1)
Copy OK
Track 7
Filename C:\Users\Spleeneuze\Music\# Uploads #\Barry White - The Very Best Of - Love Unlimited - Love Unlimited Orchestra[1997][FLAC]-Spleeneuze\Cd 2 - Love Unlimited\07. He's All I've Got.wav
Peak level 91.9 %
Extraction speed 1.7 X
Track quality 99.9 %
Test CRC BCAFBBC8
Copy CRC BCAFBBC8
Accurately ripped (confidence 2) [139517E8] (AR v1)
Copy OK
Track 8
Filename C:\Users\Spleeneuze\Music\# Uploads #\Barry White - The Very Best Of - Love Unlimited - Love Unlimited Orchestra[1997][FLAC]-Spleeneuze\Cd 2 - Love Unlimited\08. I'm So Glad That I'm A Woman.wav
Peak level 100.0 %
Extraction speed 1.8 X
Track quality 100.0 %
Test CRC 636C48C8
Copy CRC 636C48C8
Accurately ripped (confidence 2) [F7E970E6] (AR v1)
Copy OK
Track 9
Filename C:\Users\Spleeneuze\Music\# Uploads #\Barry White - The Very Best Of - Love Unlimited - Love Unlimited Orchestra[1997][FLAC]-Spleeneuze\Cd 2 - Love Unlimited\09. High Steppin', Hip Dressing Fella (You Got It Together).wav
Peak level 100.0 %
Extraction speed 1.1 X
Track quality 99.7 %
Test CRC 8CC0E6CC
Copy CRC 8CC0E6CC
Accurately ripped (confidence 2) [80E02CFD] (AR v1)
Copy OK
Track 10
Filename C:\Users\Spleeneuze\Music\# Uploads #\Barry White - The Very Best Of - Love Unlimited - Love Unlimited Orchestra[1997][FLAC]-Spleeneuze\Cd 2 - Love Unlimited\10. When I'm In Your Arms, Everything's OK.wav
Peak level 100.0 %
Extraction speed 1.3 X
Track quality 99.8 %
Test CRC C5655161
Copy CRC C5655161
Accurately ripped (confidence 2) [09440B70] (AR v1)
Copy OK
Track 11
Filename C:\Users\Spleeneuze\Music\# Uploads #\Barry White - The Very Best Of - Love Unlimited - Love Unlimited Orchestra[1997][FLAC]-Spleeneuze\Cd 2 - Love Unlimited\11. If You Want Me, Say It.wav
Peak level 100.0 %
Extraction speed 0.6 X
Track quality 99.4 %
Test CRC 51087741
Copy CRC 51087741
Accurately ripped (confidence 2) [369D87D5] (AR v1)
Copy OK
Track 12
Filename C:\Users\Spleeneuze\Music\# Uploads #\Barry White - The Very Best Of - Love Unlimited - Love Unlimited Orchestra[1997][FLAC]-Spleeneuze\Cd 2 - Love Unlimited\12. I'm Givin' You A Love (Every Man Is Searchin' For).wav
Peak level 100.0 %
Extraction speed 0.5 X
Track quality 99.3 %
Test CRC E1D79BE9
Copy CRC E1D79BE9
Accurately ripped (confidence 2) [CE983C6E] (AR v1)
Copy OK
Track 13
Filename C:\Users\Spleeneuze\Music\# Uploads #\Barry White - The Very Best Of - Love Unlimited - Love Unlimited Orchestra[1997][FLAC]-Spleeneuze\Cd 2 - Love Unlimited\13. Gotta Be Where You Are.wav
Peak level 99.7 %
Extraction speed 0.3 X
Track quality 99.0 %
Test CRC BE62AEFE
Copy CRC BE62AEFE
Accurately ripped (confidence 2) [5BD7475B] (AR v1)
Copy OK
Track 14
Filename C:\Users\Spleeneuze\Music\# Uploads #\Barry White - The Very Best Of - Love Unlimited - Love Unlimited Orchestra[1997][FLAC]-Spleeneuze\Cd 2 - Love Unlimited\14. I'm Hits Woman.wav
Peak level 99.9 %
Extraction speed 0.1 X
Track quality 98.8 %
Test CRC FF40A85B
Copy CRC FF40A85B
Accurately ripped (confidence 1) [207196B4] (AR v1)
Copy OK
All tracks accurately ripped
No errors occurred
End of status report
==== Log checksum C467C24E56BB54EEE9C1EE8214CC7E2BF8E825CE806EBA9F24D4AEF92D86BBB3 ====
 
Содержание индексной карты (.CUE)
REM GENRE Soul
REM DATE 1997
REM DISCID B9103F0E
REM COMMENT "ExactAudioCopy v1.0b3"
PERFORMER "Barry White"
TITLE "The Very Best Of - Love Unlimited"
FILE "01. I Did It For Love.wav" WAVE
TRACK 01 AUDIO
TITLE "I Did It For Love"
PERFORMER "Barry White"
PREGAP 00:00:32
INDEX 01 00:00:00
FILE "02. Never, Never Say Goodbye.wav" WAVE
TRACK 02 AUDIO
TITLE "Never, Never Say Goodbye"
PERFORMER "Barry White"
INDEX 01 00:00:00
FILE "03. Whisper You Love Me.wav" WAVE
TRACK 03 AUDIO
TITLE "Whisper You Love Me"
PERFORMER "Barry White"
INDEX 01 00:00:00
FILE "04. He's Mine (No You Can't Have Him).wav" WAVE
TRACK 04 AUDIO
TITLE "He's Mine (No You Can't Have Him)"
PERFORMER "Barry White"
INDEX 01 00:00:00
FILE "05. I Can't Let Him Down.wav" WAVE
TRACK 05 AUDIO
TITLE "I Can't Let Him Down"
PERFORMER "Barry White"
INDEX 01 00:00:00
FILE "06. I Guess I'm Just Another Girl In Love.wav" WAVE
TRACK 06 AUDIO
TITLE "I Guess I'm Just Another Girl In Love"
PERFORMER "Barry White"
INDEX 01 00:00:00
FILE "07. He's All I've Got.wav" WAVE
TRACK 07 AUDIO
TITLE "He's All I've Got"
PERFORMER "Barry White"
INDEX 01 00:00:00
FILE "08. I'm So Glad That I'm A Woman.wav" WAVE
TRACK 08 AUDIO
TITLE "I'm So Glad That I'm A Woman"
PERFORMER "Barry White"
INDEX 01 00:00:00
FILE "09. High Steppin', Hip Dressing Fella (You Got It Together).wav" WAVE
TRACK 09 AUDIO
TITLE "High Steppin', Hip Dressing Fella (You Got It Together)"
PERFORMER "Barry White"
INDEX 01 00:00:00
FILE "10. When I'm In Your Arms, Everything's OK.wav" WAVE
TRACK 10 AUDIO
TITLE "When I'm In Your Arms, Everything's OK"
PERFORMER "Barry White"
INDEX 01 00:00:00
FILE "11. If You Want Me, Say It.wav" WAVE
TRACK 11 AUDIO
TITLE "If You Want Me, Say It"
PERFORMER "Barry White"
INDEX 01 00:00:00
FILE "12. I'm Givin' You A Love (Every Man Is Searchin' For).wav" WAVE
TRACK 12 AUDIO
TITLE "I'm Givin' You A Love (Every Man Is Searchin' For)"
PERFORMER "Barry White"
INDEX 01 00:00:00
FILE "13. Gotta Be Where You Are.wav" WAVE
TRACK 13 AUDIO
TITLE "Gotta Be Where You Are"
PERFORMER "Barry White"
INDEX 01 00:00:00
FILE "14. I'm Hits Woman.wav" WAVE
TRACK 14 AUDIO
TITLE "I'm Hits Woman"
PERFORMER "Barry White"
INDEX 01 00:00:00
 
CD 3 - Love Unlimited Orchestra
Треклист:
01. Bayou (5:11)
02. Jamaican Girl (5:32)
03. I Wanna Boogie And Woogie With You (6:41)
04. Vieni Qua Bella Mi (4:50)
05. Freeway Flyer (3:24)
06. I'm In The Mood (4:31)
07. Young America (5:54)
08. Take A Good Look (And What Do You See?) (6:29)
09. After Five (7:35)
10. In Brazil (5:37)
11. Anna Lisa (4:59)
12. Goodbye Concerto (4:10)
 
 
Лог создания рипа
Exact Audio Copy V1.0 beta 3 from 29. August 2011
EAC extraction logfile from 15. March 2014, 20:16
Barry White / The Very Best Of - Love Unlimited Orchestra
Used drive : PIONEER BD-ROM BDC-TD03 Adapter: 0 ID: 1
Read mode : Secure
Utilize accurate stream : Yes
Defeat audio cache : Yes
Make use of C2 pointers : No
Read offset correction : 667
Overread into Lead-In and Lead-Out : No
Fill up missing offset samples with silence : Yes
Delete leading and trailing silent blocks : No
Null samples used in CRC calculations : Yes
Used interface : Native Win32 interface for Win NT & 2000
Gap handling : Appended to previous track
Used output format : User Defined Encoder
Selected bitrate : 1024 kBit/s
Quality : High
Add ID3 tag : No
Command line compressor : C:\Program Files (x86)\Exact Audio Copy\Flac\flac.exe
Additional command line options : -8 -V -T "ARTIST=%artist%" -T "TITLE=%title%" -T "ALBUM=%albumtitle%" -T "DATE=%year%" -T "TRACKNUMBER=%tracknr%" -T "GENRE=%genre%" -T "COMMENT=%comment%" -T "BAND=%albuminterpret%" -T "ALBUMARTIST=%albuminterpret%" -T "COMPOSER=%composer%" %haslyrics%--tag-from-file=LYRICS="%lyricsfile%"%haslyrics% -T "DISCNUMBER=%cdnumber%" -T "TOTALDISCS=%totalcds%" -T "TOTALTRACKS=%numtracks%" %hascover%--picture="%coverfile%"%hascover% %source% -o %dest%
TOC of the extracted CD
Track | Start | Length | Start sector | End sector
---------------------------------------------------------
1 | 0:00.00 | 5:10.40 | 0 | 23289
2 | 5:10.40 | 5:32.24 | 23290 | 48213
3 | 10:42.64 | 6:41.06 | 48214 | 78294
4 | 17:23.70 | 4:49.55 | 78295 | 100024
5 | 22:13.50 | 3:24.07 | 100025 | 115331
6 | 25:37.57 | 4:31.33 | 115332 | 135689
7 | 30:09.15 | 5:53.42 | 135690 | 162206
8 | 36:02.57 | 6:29.20 | 162207 | 191401
9 | 42:32.02 | 7:35.03 | 191402 | 225529
10 | 50:07.05 | 5:37.22 | 225530 | 250826
11 | 55:44.27 | 4:59.00 | 250827 | 273251
12 | 60:43.27 | 4:10.15 | 273252 | 292016
Track 1
Filename C:\Users\Spleeneuze\Music\# Uploads #\Barry White - The Very Best Of - Love Unlimited - Love Unlimited Orchestra[1997][FLAC]-Spleeneuze\Cd 3 - Love Unlimited Orchestra\01. Bayou.wav
Pre-gap length 0:00:02.00
Peak level 97.9 %
Extraction speed 3.0 X
Track quality 100.0 %
Test CRC 85D8F70B
Copy CRC 85D8F70B
Accurately ripped (confidence 1) [D45F4EA4] (AR v1)
Copy OK
Track 2
Filename C:\Users\Spleeneuze\Music\# Uploads #\Barry White - The Very Best Of - Love Unlimited - Love Unlimited Orchestra[1997][FLAC]-Spleeneuze\Cd 3 - Love Unlimited Orchestra\02. Jamaican Girl.wav
Pre-gap length 0:00:02.24
Peak level 95.9 %
Extraction speed 2.9 X
Track quality 99.9 %
Test CRC 626A074D
Copy CRC 626A074D
Accurately ripped (confidence 1) [CA01537D] (AR v1)
Copy OK
Track 3
Filename C:\Users\Spleeneuze\Music\# Uploads #\Barry White - The Very Best Of - Love Unlimited - Love Unlimited Orchestra[1997][FLAC]-Spleeneuze\Cd 3 - Love Unlimited Orchestra\03. I Wanna Boogie And Woogie With You.wav
Peak level 92.0 %
Extraction speed 3.8 X
Track quality 100.0 %
Test CRC 9A82A752
Copy CRC 9A82A752
Accurately ripped (confidence 1) [DC2B2D0E] (AR v1)
Copy OK
Track 4
Filename C:\Users\Spleeneuze\Music\# Uploads #\Barry White - The Very Best Of - Love Unlimited - Love Unlimited Orchestra[1997][FLAC]-Spleeneuze\Cd 3 - Love Unlimited Orchestra\04. Vieni Qua Bella Mi.wav
Pre-gap length 0:00:01.13
Peak level 96.6 %
Extraction speed 3.7 X
Track quality 100.0 %
Test CRC 88663D74
Copy CRC 88663D74
Accurately ripped (confidence 1) [C7775773] (AR v1)
Copy OK
Track 5
Filename C:\Users\Spleeneuze\Music\# Uploads #\Barry White - The Very Best Of - Love Unlimited - Love Unlimited Orchestra[1997][FLAC]-Spleeneuze\Cd 3 - Love Unlimited Orchestra\05. Freeway Flyer.wav
Peak level 81.8 %
Extraction speed 4.0 X
Track quality 100.0 %
Test CRC 5C4E2191
Copy CRC 5C4E2191
Accurately ripped (confidence 1) [31074151] (AR v1)
Copy OK
Track 6
Filename C:\Users\Spleeneuze\Music\# Uploads #\Barry White - The Very Best Of - Love Unlimited - Love Unlimited Orchestra[1997][FLAC]-Spleeneuze\Cd 3 - Love Unlimited Orchestra\06. I'm In The Mood.wav
Pre-gap length 0:00:02.66
Peak level 92.0 %
Extraction speed 4.5 X
Track quality 100.0 %
Test CRC 553FF65C
Copy CRC 553FF65C
Accurately ripped (confidence 1) [FF641536] (AR v1)
Copy OK
Track 7
Filename C:\Users\Spleeneuze\Music\# Uploads #\Barry White - The Very Best Of - Love Unlimited - Love Unlimited Orchestra[1997][FLAC]-Spleeneuze\Cd 3 - Love Unlimited Orchestra\07. Young America.wav
Pre-gap length 0:00:02.26
Peak level 93.1 %
Extraction speed 4.4 X
Track quality 99.9 %
Test CRC D987105B
Copy CRC D987105B
Accurately ripped (confidence 1) [FC564CF2] (AR v1)
Copy OK
Track 8
Filename C:\Users\Spleeneuze\Music\# Uploads #\Barry White - The Very Best Of - Love Unlimited - Love Unlimited Orchestra[1997][FLAC]-Spleeneuze\Cd 3 - Love Unlimited Orchestra\08. Take A Good Look (And What Do You See ).wav
Pre-gap length 0:00:02.49
Peak level 97.9 %
Extraction speed 5.1 X
Track quality 100.0 %
Test CRC 7BAA5B48
Copy CRC 7BAA5B48
Accurately ripped (confidence 1) [3C0D25FA] (AR v1)
Copy OK
Track 9
Filename C:\Users\Spleeneuze\Music\# Uploads #\Barry White - The Very Best Of - Love Unlimited - Love Unlimited Orchestra[1997][FLAC]-Spleeneuze\Cd 3 - Love Unlimited Orchestra\09. After Five.wav
Pre-gap length 0:00:01.96
Peak level 97.9 %
Extraction speed 5.4 X
Track quality 100.0 %
Test CRC 3F386B1C
Copy CRC 3F386B1C
Accurately ripped (confidence 1) [8514D76D] (AR v1)
Copy OK
Track 10
Filename C:\Users\Spleeneuze\Music\# Uploads #\Barry White - The Very Best Of - Love Unlimited - Love Unlimited Orchestra[1997][FLAC]-Spleeneuze\Cd 3 - Love Unlimited Orchestra\10. In Brazil.wav
Pre-gap length 0:00:01.97
Peak level 97.9 %
Extraction speed 5.0 X
Track quality 99.9 %
Test CRC 2E625D5C
Copy CRC 2E625D5C
Accurately ripped (confidence 1) [BB986577] (AR v1)
Copy OK
Track 11
Filename C:\Users\Spleeneuze\Music\# Uploads #\Barry White - The Very Best Of - Love Unlimited - Love Unlimited Orchestra[1997][FLAC]-Spleeneuze\Cd 3 - Love Unlimited Orchestra\11. Anna Lisa.wav
Pre-gap length 0:00:02.53
Peak level 97.9 %
Extraction speed 5.7 X
Track quality 100.0 %
Test CRC 80FA0909
Copy CRC 80FA0909
Accurately ripped (confidence 1) [03F49651] (AR v1)
Copy OK
Track 12
Filename C:\Users\Spleeneuze\Music\# Uploads #\Barry White - The Very Best Of - Love Unlimited - Love Unlimited Orchestra[1997][FLAC]-Spleeneuze\Cd 3 - Love Unlimited Orchestra\12. Goodbye Concerto.wav
Pre-gap length 0:00:02.06
Peak level 97.9 %
Extraction speed 5.7 X
Track quality 100.0 %
Test CRC F34771AA
Copy CRC F34771AA
Accurately ripped (confidence 1) [D8170272] (AR v1)
Copy OK
All tracks accurately ripped
No errors occurred
End of status report
==== Log checksum 2EF3FA51EC682D13425D3DCF692C61FEDA318C70D794DF725E9E43A824F097E2 ====
 
Содержание индексной карты (.CUE)
REM GENRE Soul
REM DATE 1997
REM DISCID 940F350C
REM COMMENT "ExactAudioCopy v1.0b3"
PERFORMER "Barry White"
TITLE "The Very Best Of - Love Unlimited Orchestra"
FILE "01. Bayou.wav" WAVE
TRACK 01 AUDIO
TITLE "Bayou"
PERFORMER "Barry White"
INDEX 01 00:00:00
TRACK 02 AUDIO
TITLE "Jamaican Girl"
PERFORMER "Barry White"
INDEX 00 05:08:22
FILE "02. Jamaican Girl.wav" WAVE
INDEX 01 00:00:00
FILE "03. I Wanna Boogie And Woogie With You.wav" WAVE
TRACK 03 AUDIO
TITLE "I Wanna Boogie And Woogie With You"
PERFORMER "Barry White"
INDEX 01 00:00:00
TRACK 04 AUDIO
TITLE "Vieni Qua Bella Mi"
PERFORMER "Barry White"
INDEX 00 06:39:71
FILE "04. Vieni Qua Bella Mi.wav" WAVE
INDEX 01 00:00:00
FILE "05. Freeway Flyer.wav" WAVE
TRACK 05 AUDIO
TITLE "Freeway Flyer"
PERFORMER "Barry White"
INDEX 01 00:00:00
TRACK 06 AUDIO
TITLE "I'm In The Mood"
PERFORMER "Barry White"
INDEX 00 03:21:32
FILE "06. I'm In The Mood.wav" WAVE
INDEX 01 00:00:00
TRACK 07 AUDIO
TITLE "Young America"
PERFORMER "Barry White"
INDEX 00 04:29:13
FILE "07. Young America.wav" WAVE
INDEX 01 00:00:00
TRACK 08 AUDIO
TITLE "Take A Good Look (And What Do You See?)"
PERFORMER "Barry White"
INDEX 00 05:51:05
FILE "08. Take A Good Look (And What Do You See).wav" WAVE
INDEX 01 00:00:00
TRACK 09 AUDIO
TITLE "After Five"
PERFORMER "Barry White"
INDEX 00 06:27:23
FILE "09. After Five.wav" WAVE
INDEX 01 00:00:00
TRACK 10 AUDIO
TITLE "In Brazil"
PERFORMER "Barry White"
INDEX 00 07:33:05
FILE "10. In Brazil.wav" WAVE
INDEX 01 00:00:00
TRACK 11 AUDIO
TITLE "Anna Lisa"
PERFORMER "Barry White"
INDEX 00 05:34:57
FILE "11. Anna Lisa.wav" WAVE
INDEX 01 00:00:00
TRACK 12 AUDIO
TITLE "Goodbye Concerto"
PERFORMER "Barry White"
INDEX 00 04:56:70
FILE "12. Goodbye Concerto.wav" WAVE
INDEX 01 00:00:00
Приватный:
Нет (DHT включён)
Размер:
1.28 Гб (1,377,279,143 байт) » файлов: 58
Участники:
0 раздают, 0 качают (0 участников всего)
Внешние участники:
2 раздают, 1 качают (3 участников всего) [ Обновить ]
Есть вопросы - пишите личное сообщение пользователю M0p94ok.
08:19
80
Нет комментариев. Ваш будет первым!