Поиск

(Jazz-Funk) [CD] Cal Green - Trippin' with Cal Green - 1969 (2006 Japan Edition), FLAC (tracks+.cue), lossless

(Jazz-Funk) [CD] Cal Green - Trippin' with Cal Green - 1969 (2006 Japan Edition), FLAC (tracks+.cue), lossless
Треклист:
Cal Green - Trippin' with Cal Green
Жанр: Jazz-Funk
Носитель: CD
Страна-производитель диска (релиза): Япония
Год издания: 2006
Издатель (лейбл): P-Vine Records
Номер по каталогу: PCD-23788
Страна исполнителя (группы): США
Аудиокодек: FLAC (*.flac)
Тип рипа: tracks+.cue
Битрейт аудио: lossless
Продолжительность: 32:32
Источник (релизер): stoichie (what)
Наличие сканов в содержимом раздачи: нет
Треклист:
01. Trippin (Green-Jefferson) - 4:58
02. Sweet September (McGuffie-Phillips-Stanley) - 3:50
03. Days of Wine and Roses (Mancini-Mercer) - 6:55
04. Sieda (Green) - 6:31
05. My Cherie Amour (Cosby-Wonder-Moy) - 3:56
06. Mellow in Blue (Green) - 3:07
07. Johnny's Gone to Vietnam (Green-Jefferson) - 3:15
Состав:
Cal Green - guitar
Charles Kynard - piano, organ
Tracy Wright - Fender bass
Billy Moore - drums, percussion
Recorded at Quantum Recording Studios, Torrance, CA in 1969.
 
Лог создания рипа
Exact Audio Copy V1.0 beta 6 from 9. April 2015
EAC extraction logfile from 27. September 2015, 14:14
Cal Green / Trippin' With Cal Green
Used drive : MATSHITADVD+-RW UJ8FB Adapter: 1 ID: 0
Read mode : Secure
Utilize accurate stream : Yes
Defeat audio cache : Yes
Make use of C2 pointers : No
Read offset correction : 6
Overread into Lead-In and Lead-Out : No
Fill up missing offset samples with silence : Yes
Delete leading and trailing silent blocks : No
Null samples used in CRC calculations : Yes
Used interface : Native Win32 interface for Win NT & 2000
Gap handling : Appended to previous track
Used output format : User Defined Encoder
Selected bitrate : 1024 kBit/s
Quality : High
Add ID3 tag : No
Command line compressor : C:\Program Files\Flac\flac.exe
Additional command line options : -8 -V -T "ARTIST=%artist%" -T "TITLE=%title%" -T "ALBUM=%albumtitle%" -T "DATE=%year%" -T "TRACKNUMBER=%tracknr%" -T "GENRE=%genre%" -T "PERFORMER=%albuminterpret%" -T "COMPOSER=%composer%" %haslyrics%--tag-from-file=LYRICS="%lyricsfile%"%haslyrics% -T "ALBUMARTIST=%albumartist%" -T "DISCNUMBER=%cdnumber%" -T "TOTALDISCS=%totalcds%" -T "TOTALTRACKS=%numtracks%" -T "COMMENT=%comment%" %source% -o %dest%
TOC of the extracted CD
Track | Start | Length | Start sector | End sector
---------------------------------------------------------
1 | 0:00.00 | 4:58.02 | 0 | 22351
2 | 4:58.02 | 3:49.62 | 22352 | 39588
3 | 8:47.64 | 6:54.46 | 39589 | 70684
4 | 15:42.35 | 6:30.55 | 70685 | 99989
5 | 22:13.15 | 3:56.07 | 99990 | 117696
6 | 26:09.22 | 3:07.35 | 117697 | 131756
7 | 29:16.57 | 3:14.48 | 131757 | 146354
Track 1
Filename C:\EAC Rips\Cal Green - Trippin' With Cal Green (1969)\01 - Trippin.wav
Pre-gap length 0:00:02.00
Peak level 98.8 %
Extraction speed 2.7 X
Track quality 100.0 %
Test CRC B350368E
Copy CRC B350368E
Track not present in AccurateRip database
Copy OK
Track 2
Filename C:\EAC Rips\Cal Green - Trippin' With Cal Green (1969)\02 - Sweet September.wav
Pre-gap length 0:00:02.40
Peak level 98.8 %
Extraction speed 2.9 X
Track quality 100.0 %
Test CRC 433797AD
Copy CRC 433797AD
Track not present in AccurateRip database
Copy OK
Track 3
Filename C:\EAC Rips\Cal Green - Trippin' With Cal Green (1969)\03 - Days Of Wine And Roses.wav
Pre-gap length 0:00:02.38
Peak level 98.8 %
Extraction speed 3.4 X
Track quality 100.0 %
Test CRC 57094703
Copy CRC 57094703
Track not present in AccurateRip database
Copy OK
Track 4
Filename C:\EAC Rips\Cal Green - Trippin' With Cal Green (1969)\04 - Sieda.wav
Pre-gap length 0:00:02.40
Peak level 98.8 %
Extraction speed 3.4 X
Track quality 99.9 %
Test CRC 0126F393
Copy CRC 0126F393
Track not present in AccurateRip database
Copy OK
Track 5
Filename C:\EAC Rips\Cal Green - Trippin' With Cal Green (1969)\05 - My Cherie Amour.wav
Pre-gap length 0:00:02.40
Peak level 98.8 %
Extraction speed 3.9 X
Track quality 100.0 %
Test CRC 2CEDD2E7
Copy CRC 2CEDD2E7
Track not present in AccurateRip database
Copy OK
Track 6
Filename C:\EAC Rips\Cal Green - Trippin' With Cal Green (1969)\06 - Mellow In Blue.wav
Pre-gap length 0:00:02.40
Peak level 98.8 %
Extraction speed 3.9 X
Track quality 100.0 %
Test CRC E3FB818C
Copy CRC E3FB818C
Track not present in AccurateRip database
Copy OK
Track 7
Filename C:\EAC Rips\Cal Green - Trippin' With Cal Green (1969)\07 - Johnny's Gone To Vietnam.wav
Pre-gap length 0:00:02.89
Peak level 98.8 %
Extraction speed 4.1 X
Track quality 100.0 %
Test CRC ED7EB4AB
Copy CRC ED7EB4AB
Track not present in AccurateRip database
Copy OK
None of the tracks are present in the AccurateRip database
No errors occurred
End of status report
---- CUETools DB Plugin V2.1.6
[CTDB TOCID: Rg4DNbMkA2XmGPzEQFTFTkYfnBU-] found
Submit result: Rg4DNbMkA2XmGPzEQFTFTkYfnBU- has been confirmed
Track | CTDB Status
1 | (1/1) Accurately ripped
2 | (1/1) Accurately ripped
3 | (1/1) Accurately ripped
4 | (1/1) Accurately ripped
5 | (1/1) Accurately ripped
6 | (1/1) Accurately ripped
7 | (1/1) Accurately ripped
==== Log checksum 1AEC244AC9A81D4B6E1395F3B6901174D2DB788296888C44A26AF20DA61116F3 ====
 
Содержание индексной карты (.CUE)
REM GENRE Jazz
REM DATE 1969
REM DISCID 55079F07
REM COMMENT "ExactAudioCopy v1.0b6"
CATALOG 4995879237885
PERFORMER "Cal Green"
TITLE "Trippin' with Cal Green"
FILE "01 - Trippin.wav" WAVE
TRACK 01 AUDIO
TITLE "Trippin"
PERFORMER "Cal Green"
INDEX 01 00:00:00
TRACK 02 AUDIO
TITLE "Sweet September"
PERFORMER "Cal Green"
INDEX 00 04:55:47
FILE "02 - Sweet September.wav" WAVE
INDEX 01 00:00:00
TRACK 03 AUDIO
TITLE "Days of Wine and Roses"
PERFORMER "Cal Green"
INDEX 00 03:47:33
FILE "03 - Days of Wine and Roses.wav" WAVE
INDEX 01 00:00:00
TRACK 04 AUDIO
TITLE "Sieda"
PERFORMER "Cal Green"
INDEX 00 06:52:16
FILE "04 - Sieda.wav" WAVE
INDEX 01 00:00:00
TRACK 05 AUDIO
TITLE "My Cherie Amour"
PERFORMER "Cal Green"
INDEX 00 06:28:25
FILE "05 - My Cherie Amour.wav" WAVE
INDEX 01 00:00:00
TRACK 06 AUDIO
TITLE "Mellow in Blue"
PERFORMER "Cal Green"
INDEX 00 03:53:52
FILE "06 - Mellow in Blue.wav" WAVE
INDEX 01 00:00:00
TRACK 07 AUDIO
TITLE "Johnny's Gone to Vietnam"
PERFORMER "Cal Green"
INDEX 00 03:04:43
FILE "07 - Johnny's Gone to Vietnam.wav" WAVE
INDEX 01 00:00:00
 
Отчет CUETools
[CUETools log; Date: 14.10.2015 1:24:35; Version: 2.1.5]
[CTDB TOCID: Rg4DNbMkA2XmGPzEQFTFTkYfnBU-] found.
Track | CTDB Status
1 | (2/2) Accurately ripped
2 | (2/2) Accurately ripped
3 | (2/2) Accurately ripped
4 | (2/2) Accurately ripped
5 | (2/2) Accurately ripped
6 | (2/2) Accurately ripped
7 | (2/2) Accurately ripped
[AccurateRip ID: 000996c9-003926cb-55079f07] disk not present in database.
Track Peak [ CRC32 ] [W/O NULL] [ LOG ]
-- 98,8 [768E3948] [0DF65B76]
01 98,8 [B350368E] [FF571E42] CRC32
02 98,8 [433797AD] [3261FDDE] CRC32
03 98,8 [57094703] [1B1DB750] CRC32
04 98,8 [0126F393] [BB0F366A] CRC32
05 98,8 [2CEDD2E7] [2A9DA696] CRC32
06 98,8 [E3FB818C] [9DD1D262] CRC32
07 98,8 [ED7EB4AB] [2613D91F] CRC32
 
AllMusic Review by Jason Ankeny
The back cover of Trippin' with Cal Green bears the message "This Album Should Be Titled MONSTER," and it's the absolute truth -- this blissed-out psychedelic jazz opus boasts some of the most extraordinarily funky guitar ever committed to vinyl. Best known for his collaboration with acid jazz pioneer Charles Kynard, who contributes some incendiary organ here, Green deserves mention in the same breath as fellow post-Wes Montgomery greats Grant Green and Eddie Fisher -- his vividly soulful leads are somehow both earthy and otherworldly. His virtuosity even transcends paint-by-numbers originals like "Mellow in Blue" and "Johnny's Gone to Vietnam" -- the album's highlight is nevertheless its hypnotic cover of Stevie Wonder's "My Cherie Amour."
Приватный:
Нет (DHT включён)
Размер:
203.47 Мб (213,358,159 байт) » файлов: 15
Участники:
0 раздают, 0 качают (0 участников всего)
Внешние участники:
3 раздают, 1 качают (4 участников всего) [ Обновить ]
Есть вопросы - пишите личное сообщение пользователю M0p94ok.
08:19
48
Нет комментариев. Ваш будет первым!