Поиск

(Soul, Blues, R'n'B) Noora Noor - Soul Deep - 2009, FLAC (image+.cue), lossless

(Soul, Blues, R'n'B) Noora Noor - Soul Deep - 2009, FLAC (image+.cue), lossless
Треклист:
Noora Noor / Soul Deep
Жанр: Soul, Blues, R'n'B
Страна-производитель диска (релиза): Norway
Год издания: 2009
Издатель (лейбл): Blue Mood
Аудиокодек: FLAC (*.flac)
Тип рипа: image+.cue
Битрейт аудио: lossless
Продолжительность: 52:34
Источник (релизер): katushka.net
Наличие сканов в содержимом раздачи: нет
Треклист:
01 What Man Have Done
02 Someone You Use
03 Funky Way
04 Forget What I Said
05 Your Good Thing
06 Little Ghetto Boy
07 She Will Break Your Heart
08 Dedication
09 Musiq
10 Die For You
11 Move On Up
12 You Will Always Be Free
 
Лог создания рипа
Exact Audio Copy V0.99 prebeta 5 from 4. May 2009
Отчёт EAC об извлечении, выполненном 25. января 2013, 16:00
Noora Noor / Soul Deep
Дисковод: PIONEER DVD-RW DVR-118L Adapter: 0 ID: 0
Режим чтения : Достоверность
Использование точного потока : Да
Отключение кэша аудио : Да
Использование указателей C2 : Нет
Коррекция смещения при чтении : 6
Способность читать области Lead-in и Lead-out : Нет
Заполнение пропущенных сэмплов тишиной : Да
Удаление блоков с тишиной в начале и конце : Нет
При вычислениях CRC использовались нулевые сэмплы : Да
Интерфейс : Встроенный Win32-интерфейс для Win NT/2000
Выходной формат : Пользовательский кодировщик
Выбранный битрейт : 1024 kBit/s
Качество : Высокий
Добавление ID3-тэга : Нет
Утилита сжатия : E:\Мои документы\Downloads\Exact Audio Copy\FLAC\FLAC.EXE
Дополнительные параметры : -6 -V -T "ARTIST=%a" -T "TITLE=%t" -T "ALBUM=%g" -T "DATE=%y" -T "TRACKNUMBER=%n" -T "GENRE=%m" -T "COMMENT=%e" %s -o %d
TOC извлечённого CD
Трек | Старт | Длительность | Начальный сектор | Конечный сектор
---------------------------------------------------------------------
1 | 0:00.00 | 4:00.53 | 0 | 18052
2 | 4:00.53 | 3:31.44 | 18053 | 33921
3 | 7:32.22 | 3:36.27 | 33922 | 50148
4 | 11:08.49 | 3:19.24 | 50149 | 65097
5 | 14:27.73 | 4:18.72 | 65098 | 84519
6 | 18:46.70 | 3:57.36 | 84520 | 102330
7 | 22:44.31 | 4:30.10 | 102331 | 122590
8 | 27:14.41 | 4:32.39 | 122591 | 143029
9 | 31:47.05 | 7:02.28 | 143030 | 174707
10 | 38:49.33 | 4:22.23 | 174708 | 194380
11 | 43:11.56 | 5:53.44 | 194381 | 220899
12 | 49:05.25 | 3:29.34 | 220900 | 236608
Характеристики диапазона извлечения и сообщения об ошибках
Выбранный диапазон
Имя файла C:\Вся музыка\Noora Noor - Soul Deep.wav
Пиковый уровень 96.3 %
Качество диапазона 100.0 %
CRC копии DE781A83
Копирование... OK
Ошибок не произошло
AccurateRip: сводка
Трек 1 точность не определена (достоверность 6) [BC1C10DD], AccurateRip вернул [EE4EA9FB]
Трек 2 точность не определена (достоверность 6) [A7808A46], AccurateRip вернул [0D987C6E]
Трек 3 точность не определена (достоверность 6) [66386F93], AccurateRip вернул [DE69CAB9]
Трек 4 точность не определена (достоверность 6) [75758150], AccurateRip вернул [CC300625]
Трек 5 точность не определена (достоверность 6) [6286889C], AccurateRip вернул [258933DE]
Трек 6 точность не определена (достоверность 6) [67CF0C4A], AccurateRip вернул [61E2E2B4]
Трек 7 точность не определена (достоверность 6) [8F62FFDA], AccurateRip вернул [36712D10]
Трек 8 точность не определена (достоверность 6) [7CC156BD], AccurateRip вернул [C5308BC7]
Трек 9 точность не определена (достоверность 6) [B6412227], AccurateRip вернул [ECD94AE5]
Трек 10 точность не определена (достоверность 6) [12C5FBF7], AccurateRip вернул [5AE51B01]
Трек 11 точность не определена (достоверность 6) [8B9F1893], AccurateRip вернул [728B8DD9]
Трек 12 точность не определена (достоверность 6) [8A9ECD02], AccurateRip вернул [D5BA7BE7]
Ни один трек не прошёл проверки на точность
В вашей базе может быть иной вариант штамповки диска
Конец отчёта
Приватный:
Нет (DHT включён)
Размер:
339.87 Мб (356,380,756 байт) » файлов: 5
Участники:
0 раздают, 0 качают (0 участников всего)
Внешние участники:
7 раздают, 2 качают (9 участников всего) [ Обновить ]
Есть вопросы - пишите личное сообщение пользователю M0p94ok.
04:22
113
Нет комментариев. Ваш будет первым!