Поиск

(Neo Soul, Funk, R'n'B, Jazz, African) Lira - 2 albums - 2006-2008, FLAC (tracks+.cue), lossless

(Neo Soul, Funk, R'n'B, Jazz, African) Lira - 2 albums - 2006-2008, FLAC (tracks+.cue), lossless
Треклист:
Lira / 2 albums
Жанр: Neo Soul, Funk, R'n'B, Jazz, African
Страна-производитель диска (релиза): South Africa
Год издания: 2006-2008
Издатель (лейбл): Sony Music Africa
Страна исполнителя (группы): South Africa
Аудиокодек: FLAC (*.flac)
Тип рипа: tracks, tracks+.cue
Битрейт аудио: lossless
Источник (релизер): israbox
Наличие сканов в содержимом раздачи: нет
 
Feel Good

Год издания диска: 2006
Продолжительность: 66:00
Треклист:
01 Feel Good
02 Ixesha
03 Typical
04 Dance Of Life
05 Ngiyazifela
06 Crush
07 Twisted
08 Ngiyabonga
09 Iris
10 Dumisa
11 Feel It In Me
12 Khet'omthandayo
13 Yeah, Yeah, Yeah
14 Change The World
 
Отчёт EAC
Exact Audio Copy V1.0 beta 3 from 29. August 2011
EAC extraction logfile from 31. October 2013, 17:25
Lira / Feel Good
Used drive : TSSTcorpCDDVDW SE-S084B Adapter: 0 ID: 0
Read mode : Secure
Utilize accurate stream : Yes
Defeat audio cache : Yes
Make use of C2 pointers : No
Read offset correction : 6
Overread into Lead-In and Lead-Out : No
Fill up missing offset samples with silence : Yes
Delete leading and trailing silent blocks : No
Null samples used in CRC calculations : Yes
Used interface : Native Win32 interface for Win NT & 2000
Gap handling : Appended to previous track
Used output format : User Defined Encoder
Selected bitrate : 768 kBit/s
Quality : High
Add ID3 tag : Yes
Command line compressor : C:\Program Files (x86)\Exact Audio Copy\FLAC\FLAC.EXE
Additional command line options : -6 -V -T "ARTIST=%artist%" -T "TITLE=%title%" -T "ALBUM=%albumtitle%" -T "DATE=%year%" -T "TRACKNUMBER=%tracknr%" -T "GENRE=%genre%" -T "COMMENT=%comment%" -T "BAND=%albuminterpret%" -T "ALBUMARTIST=%albuminterpret%" -T "COMPOSER=%composer%" %haslyrics%--tag-from-file=LYRICS="%lyricsfile%"%haslyrics% -T "DISCNUMBER=%cdnumber%" -T "TOTALDISCS=%totalcds%" -T "TOTALTRACKS=%numtracks%" %hascover%--picture="%coverfile%"%hascover% %source% -o %dest%
TOC of the extracted CD
Track | Start | Length | Start sector | End sector
---------------------------------------------------------
1 | 0:00.00 | 5:20.46 | 0 | 24045
2 | 5:20.46 | 5:06.09 | 24046 | 47004
3 | 10:26.55 | 5:41.60 | 47005 | 72639
4 | 16:08.40 | 5:22.74 | 72640 | 96863
5 | 21:31.39 | 4:39.02 | 96864 | 117790
6 | 26:10.41 | 3:51.36 | 117791 | 135151
7 | 30:02.02 | 3:58.10 | 135152 | 153011
8 | 34:00.12 | 3:13.68 | 153012 | 167554
9 | 37:14.05 | 4:29.68 | 167555 | 187797
10 | 41:43.73 | 3:37.73 | 187798 | 204145
11 | 45:21.71 | 4:57.52 | 204146 | 226472
12 | 50:19.48 | 4:12.08 | 226473 | 245380
13 | 54:31.56 | 5:15.37 | 245381 | 269042
14 | 59:47.18 | 6:12.57 | 269043 | 296999
Track 1
Filename C:\Users\Rudy Broersma\Desktop\Lira - Feel Good (2006) - FLAC\01 - Lira - Feel Good.wav
Pre-gap length 0:00:02.00
Peak level 100.0 %
Extraction speed 2.8 X
Track quality 100.0 %
Test CRC DF1EADF2
Copy CRC DF1EADF2
Cannot be verified as accurate (confidence 3) [3B86D87D], AccurateRip returned [A27279E2] (AR v2)
Copy OK
Track 2
Filename C:\Users\Rudy Broersma\Desktop\Lira - Feel Good (2006) - FLAC\02 - Lira - Ixesha.wav
Peak level 100.0 %
Extraction speed 3.1 X
Track quality 100.0 %
Test CRC 6764FD17
Copy CRC 6764FD17
Cannot be verified as accurate (confidence 3) [F021872E], AccurateRip returned [4032AD89] (AR v2)
Copy OK
Track 3
Filename C:\Users\Rudy Broersma\Desktop\Lira - Feel Good (2006) - FLAC\03 - Lira - Typical.wav
Peak level 100.0 %
Extraction speed 3.5 X
Track quality 100.0 %
Test CRC 65749231
Copy CRC 65749231
Cannot be verified as accurate (confidence 3) [E761B1EA], AccurateRip returned [CDC4740B] (AR v2)
Copy OK
Track 4
Filename C:\Users\Rudy Broersma\Desktop\Lira - Feel Good (2006) - FLAC\04 - Lira - Dance of Life.wav
Peak level 100.0 %
Extraction speed 3.8 X
Track quality 100.0 %
Test CRC 9316190D
Copy CRC 9316190D
Cannot be verified as accurate (confidence 3) [2D6A4F7F], AccurateRip returned [A463993A] (AR v2)
Copy OK
Track 5
Filename C:\Users\Rudy Broersma\Desktop\Lira - Feel Good (2006) - FLAC\05 - Lira - Ngiyazifela.wav
Peak level 100.0 %
Extraction speed 4.0 X
Track quality 100.0 %
Test CRC CB11A74A
Copy CRC CB11A74A
Cannot be verified as accurate (confidence 3) [6215EB5E], AccurateRip returned [E41F5603] (AR v2)
Copy OK
Track 6
Filename C:\Users\Rudy Broersma\Desktop\Lira - Feel Good (2006) - FLAC\06 - Lira - Crush.wav
Peak level 100.0 %
Extraction speed 4.1 X
Track quality 100.0 %
Test CRC 36089034
Copy CRC 36089034
Cannot be verified as accurate (confidence 3) [41DD5E42], AccurateRip returned [46558A18] (AR v2)
Copy OK
Track 7
Filename C:\Users\Rudy Broersma\Desktop\Lira - Feel Good (2006) - FLAC\07 - Lira - Twisted.wav
Peak level 100.0 %
Extraction speed 4.2 X
Track quality 100.0 %
Test CRC 4C7B3758
Copy CRC 4C7B3758
Cannot be verified as accurate (confidence 3) [EF6336DD], AccurateRip returned [C88735C7] (AR v2)
Copy OK
Track 8
Filename C:\Users\Rudy Broersma\Desktop\Lira - Feel Good (2006) - FLAC\08 - Lira - Ngiyabonga.wav
Peak level 100.0 %
Extraction speed 4.2 X
Track quality 100.0 %
Test CRC DD99830B
Copy CRC DD99830B
Cannot be verified as accurate (confidence 3) [620F66C2], AccurateRip returned [1FC1BBFF] (AR v2)
Copy OK
Track 9
Filename C:\Users\Rudy Broersma\Desktop\Lira - Feel Good (2006) - FLAC\09 - Lira - Iris.wav
Peak level 100.0 %
Extraction speed 3.7 X
Track quality 99.9 %
Test CRC 7DF0EBF7
Copy CRC 7DF0EBF7
Cannot be verified as accurate (confidence 3) [E570A4F0], AccurateRip returned [3C30EC19] (AR v2)
Copy OK
Track 10
Filename C:\Users\Rudy Broersma\Desktop\Lira - Feel Good (2006) - FLAC\10 - Lira - Dumisa.wav
Peak level 75.2 %
Extraction speed 4.4 X
Track quality 100.0 %
Test CRC B2766733
Copy CRC B2766733
Cannot be verified as accurate (confidence 3) [E44587C8], AccurateRip returned [FEA500C8] (AR v2)
Copy OK
Track 11
Filename C:\Users\Rudy Broersma\Desktop\Lira - Feel Good (2006) - FLAC\11 - Lira - Feel it in Me.wav
Peak level 100.0 %
Extraction speed 4.7 X
Track quality 100.0 %
Test CRC 8DF7B8E2
Copy CRC 8DF7B8E2
Cannot be verified as accurate (confidence 3) [C29DB5F6], AccurateRip returned [601AA96E] (AR v2)
Copy OK
Track 12
Filename C:\Users\Rudy Broersma\Desktop\Lira - Feel Good (2006) - FLAC\12 - Lira - Khet'omthandayo.wav
Peak level 100.0 %
Extraction speed 4.8 X
Track quality 100.0 %
Test CRC C749B201
Copy CRC C749B201
Cannot be verified as accurate (confidence 3) [59E630A5], AccurateRip returned [C1CCD9B1] (AR v2)
Copy OK
Track 13
Filename C:\Users\Rudy Broersma\Desktop\Lira - Feel Good (2006) - FLAC\13 - Lira - Yeah, Yeah, Yeah.wav
Peak level 89.6 %
Extraction speed 5.0 X
Track quality 100.0 %
Test CRC 3C05B347
Copy CRC 3C05B347
Cannot be verified as accurate (confidence 3) [18230773], AccurateRip returned [A78E4BD0] (AR v2)
Copy OK
Track 14
Filename C:\Users\Rudy Broersma\Desktop\Lira - Feel Good (2006) - FLAC\14 - Lira - Change The World.wav
Peak level 100.0 %
Extraction speed 5.2 X
Track quality 100.0 %
Test CRC 587C938A
Copy CRC 587C938A
Cannot be verified as accurate (confidence 3) [973CE94F], AccurateRip returned [E5B613A7] (AR v2)
Copy OK
No tracks could be verified as accurate
You may have a different pressing from the one(s) in the database
No errors occurred
End of status report
---- CUETools DB Plugin V2.1.3
[CTDB TOCID: MclUK7nVVH3HBNnCXbmxmTG5OJQ-] found, Submit result: MclUK7nVVH3HBNnCXbmxmTG5OJQ- has been confirmed
[2311b677] (3/3) Accurately ripped
==== Log checksum 0D64FF2E703448E9F4940CE2503F2CE3F95AB05F29C9BC548B3E620C08B019CF ====
 
Soul In Mind

Год издания диска: 2008
Продолжительность: 53:10
Треклист:
01 Wa Mpaleha
02 Rise Again
03 Another Day
04 Makubenjalo
05 Soul In Mind
06 Hamba
07 S'thandwa Sam'
08 Heart Of A Child
09 Believer
10 My Company
11 It's Alright
12 Made For Me
13 Celebrating Life
 
Отчёт EAC
Exact Audio Copy V1.0 beta 3 from 29. August 2011
EAC extraction logfile from 28. June 2012, 23:10
Lira / Soul in Mind
Used drive : PIONEER DVD-RW DVRTD08A Adapter: 1 ID: 0
Read mode : Secure
Utilize accurate stream : Yes
Defeat audio cache : Yes
Make use of C2 pointers : No
Read offset correction : 48
Overread into Lead-In and Lead-Out : No
Fill up missing offset samples with silence : Yes
Delete leading and trailing silent blocks : No
Null samples used in CRC calculations : Yes
Used interface : Native Win32 interface for Win NT & 2000
Gap handling : Appended to previous track
Used output format : User Defined Encoder
Selected bitrate : 1024 kBit/s
Quality : High
Add ID3 tag : No
Command line compressor : C:\Program Files (x86)\Exact Audio Copy\Flac\flac.exe
Additional command line options : -8 -V -T "ARTIST=%artist%" -T "TITLE=%title%" -T "ALBUM=%albumtitle%" -T "DATE=%year%" -T "TRACKNUMBER=%tracknr%" -T "GENRE=%genre%" -T "PERFORMER=%albuminterpret%" -T "COMPOSER=%composer%" %haslyrics%--tag-from-file=LYRICS="%lyricsfile%"%haslyrics% -T "ALBUMARTIST=%albumartist%" -T "DISCNUMBER=%cdnumber%" -T "TOTALDISCS=%totalcds%" -T "TOTALTRACKS=%numtracks%" -T "COMMENT=%comment%" %source% -o %dest%
TOC of the extracted CD
Track | Start | Length | Start sector | End sector
---------------------------------------------------------
1 | 0:00.00 | 3:35.10 | 0 | 16134
2 | 3:35.10 | 3:17.54 | 16135 | 30963
3 | 6:52.64 | 3:29.21 | 30964 | 46659
4 | 10:22.10 | 4:30.40 | 46660 | 66949
5 | 14:52.50 | 2:59.00 | 66950 | 80374
6 | 17:51.50 | 5:36.33 | 80375 | 105607
7 | 23:28.08 | 4:09.59 | 105608 | 124341
8 | 27:37.67 | 3:55.59 | 124342 | 142025
9 | 31:33.51 | 4:39.63 | 142026 | 163013
10 | 36:13.39 | 2:56.42 | 163014 | 176255
11 | 39:10.06 | 3:51.03 | 176256 | 193583
12 | 43:01.09 | 5:09.08 | 193584 | 216766
13 | 48:10.17 | 4:59.58 | 216767 | 239249
Track 1
Filename C:\EAC\01 - Wa Mpaleha.wav
Pre-gap length 0:00:02.00
Peak level 100.0 %
Extraction speed 0.9 X
Track quality 99.9 %
Test CRC 73476996
Copy CRC 73476996
Track not present in AccurateRip database
Copy OK
Track 2
Filename C:\EAC\02 - Rise Again.wav
Peak level 100.0 %
Extraction speed 1.1 X
Track quality 100.0 %
Test CRC 96D09F06
Copy CRC 96D09F06
Track not present in AccurateRip database
Copy OK
Track 3
Filename C:\EAC\03 - Another Day.wav
Peak level 100.0 %
Extraction speed 1.2 X
Track quality 100.0 %
Test CRC C3539314
Copy CRC C3539314
Track not present in AccurateRip database
Copy OK
Track 4
Filename C:\EAC\04 - Makubenjalo.wav
Peak level 100.0 %
Extraction speed 1.3 X
Track quality 100.0 %
Test CRC 8E8FF42A
Copy CRC 8E8FF42A
Track not present in AccurateRip database
Copy OK
Track 5
Filename C:\EAC\05 - Soul in Mind.wav
Peak level 100.0 %
Extraction speed 1.3 X
Track quality 100.0 %
Test CRC 89D4C13B
Copy CRC 89D4C13B
Accurately ripped (confidence 1) [8B472463] (AR v1)
Copy OK
Track 6
Filename C:\EAC\06 - Hamba.wav
Peak level 100.0 %
Extraction speed 1.6 X
Track quality 100.0 %
Test CRC A075CBB4
Copy CRC A075CBB4
Track not present in AccurateRip database
Copy OK
Track 7
Filename C:\EAC\07 - S'thandwa Sam'.wav
Peak level 100.0 %
Extraction speed 1.6 X
Track quality 100.0 %
Test CRC 92AC126F
Copy CRC 92AC126F
Track not present in AccurateRip database
Copy OK
Track 8
Filename C:\EAC\08 - Heart of a Child.wav
Peak level 100.0 %
Extraction speed 1.7 X
Track quality 100.0 %
Test CRC 14B4263A
Copy CRC 14B4263A
Track not present in AccurateRip database
Copy OK
Track 9
Filename C:\EAC\09 - Believer.wav
Peak level 100.0 %
Extraction speed 1.6 X
Track quality 99.9 %
Test CRC 5713BE23
Copy CRC 5713BE23
Track not present in AccurateRip database
Copy OK
Track 10
Filename C:\EAC\10 - My Company.wav
Peak level 100.0 %
Extraction speed 1.7 X
Track quality 100.0 %
Test CRC AF235950
Copy CRC AF235950
Track not present in AccurateRip database
Copy OK
Track 11
Filename C:\EAC\11 - It's Alright.wav
Peak level 100.0 %
Extraction speed 1.6 X
Track quality 99.9 %
Test CRC C8B47AD0
Copy CRC C8B47AD0
Track not present in AccurateRip database
Copy OK
Track 12
Filename C:\EAC\12 - Made for Me.wav
Peak level 91.1 %
Extraction speed 1.8 X
Track quality 99.9 %
Test CRC 809BA58D
Copy CRC 809BA58D
Track not present in AccurateRip database
Copy OK
Track 13
Filename C:\EAC\13 - Celebrating Life.wav
Peak level 100.0 %
Extraction speed 1.8 X
Track quality 99.9 %
Test CRC E6C2FD19
Copy CRC E6C2FD19
Accurately ripped (confidence 1) [B8A33DA8] (AR v1)
Copy OK
2 track(s) accurately ripped
11 track(s) not present in the AccurateRip database
Some tracks could not be verified as accurate
No errors occurred
End of status report
---- CUETools DB Plugin V2.1.3
[CTDB TOCID: T1yos._bfWVK.59k4jyBJbhKOGA-] disk not present in database, Submit result: T1yos._bfWVK.59k4jyBJbhKOGA- has been uploaded
==== Log checksum 47AFB2E5417F5F61E7DF5296078079A207B3296D05B9A4345D2C5AF5D4E2A22C ====
 
Soul In Mind.cue
REM GENRE Vocal
REM DATE 2008
REM DISCID B50C760D
REM COMMENT "ExactAudioCopy v1.0b3"
PERFORMER "Lira"
TITLE "Soul in Mind"
FILE "01 - Wa Mpaleha.wav" WAVE
TRACK 01 AUDIO
TITLE "Wa Mpaleha"
PERFORMER "Lira"
ISRC ZAA010800403
INDEX 01 00:00:00
FILE "02 - Rise Again.wav" WAVE
TRACK 02 AUDIO
TITLE "Rise Again"
PERFORMER "Lira"
ISRC ZAA010800406
INDEX 01 00:00:00
FILE "03 - Another Day.wav" WAVE
TRACK 03 AUDIO
TITLE "Another Day"
PERFORMER "Lira"
ISRC ZAA010800407
INDEX 01 00:00:00
FILE "04 - Makubenjalo.wav" WAVE
TRACK 04 AUDIO
TITLE "Makubenjalo"
PERFORMER "Lira"
ISRC ZAA010800408
INDEX 01 00:00:00
FILE "05 - Soul in Mind.wav" WAVE
TRACK 05 AUDIO
TITLE "Soul in Mind"
PERFORMER "Lira"
ISRC ZAA010800409
INDEX 01 00:00:00
FILE "06 - Hamba.wav" WAVE
TRACK 06 AUDIO
TITLE "Hamba"
PERFORMER "Lira"
ISRC ZAA010800410
INDEX 01 00:00:00
FILE "07 - S'thandwa Sam'.wav" WAVE
TRACK 07 AUDIO
TITLE "S'thandwa Sam'"
PERFORMER "Lira"
ISRC ZAA010800411
INDEX 01 00:00:00
FILE "08 - Heart of a Child.wav" WAVE
TRACK 08 AUDIO
TITLE "Heart of a Child"
PERFORMER "Lira"
ISRC ZAA010800412
INDEX 01 00:00:00
FILE "09 - Believer.wav" WAVE
TRACK 09 AUDIO
TITLE "Believer"
PERFORMER "Lira"
ISRC ZAA010800413
INDEX 01 00:00:00
FILE "10 - My Company.wav" WAVE
TRACK 10 AUDIO
TITLE "My Company"
PERFORMER "Lira"
ISRC ZAA010800414
INDEX 01 00:00:00
FILE "11 - It's Alright.wav" WAVE
TRACK 11 AUDIO
TITLE "It's Alright"
PERFORMER "Lira"
ISRC ZAA010800415
INDEX 01 00:00:00
FILE "12 - Made for Me.wav" WAVE
TRACK 12 AUDIO
TITLE "Made for Me"
PERFORMER "Lira"
ISRC ZAA010800416
INDEX 01 00:00:00
FILE "13 - Celebrating Life.wav" WAVE
TRACK 13 AUDIO
TITLE "Celebrating Life"
PERFORMER "Lira"
ISRC ZAA010800417
INDEX 01 00:00:00
Доп. информация: Рекомендуется всем любителям Ayo, Lizz Wright и Somi.
Приватный:
Нет (DHT включён)
Размер:
736.33 Мб (772,100,262 байт) » файлов: 33
Участники:
0 раздают, 0 качают (0 участников всего)
Внешние участники:
1 раздают, 0 качают (1 участников всего) [ Обновить ]
Есть вопросы - пишите личное сообщение пользователю M0p94ok.
04:21
60
Нет комментариев. Ваш будет первым!