Поиск

(Soul, Acapella, Worldbeat) Zap Mama - Adventures In Afropea 1 - 1993, FLAC (tracks+.cue), lossless

(Soul, Acapella, Worldbeat) Zap Mama - Adventures In Afropea 1 - 1993, FLAC (tracks+.cue), lossless
Треклист:
Zap Mama - Adventures In Afropea 1
Жанр: Soul, Acapella, Worldbeat
Год выпуска диска: 1993
Аудио кодек: FLAC
Тип рипа: tracks+.cue
Битрейт аудио: lossless
Продолжительность: 0:51:42
Трэклист:
01. Mupepe (3:51)
02. Bottom (1:31)
03. Brrrlak! (3:30)
04. Abadou (4:06)
05. Take Me Coco (4:14)
06. Plekete (3:26)
07. Mizike (5:47)
08. Babanzélé (7:40)
09. Din Din (1:04)
10. I Ne Suhe (1:03)
11. Guzophela (2:31)
12. Nabombeli Yo (4:03)
13. Marie-Josée (3:14)
14. Ndje Mukanie (3:07)
15. Son Cubano (2:34)
 
EAC log
Exact Audio Copy V0.99 prebeta 4 from 23. January 2008
EAC extraction logfile from 2. September 2008, 16:44
Zap Mama / Adventures In Afropea 1
Used drive : TSSTcorpCDDVDW SH-S223F Adapter: 4 ID: 0
Read mode : Secure
Utilize accurate stream : Yes
Defeat audio cache : No
Make use of C2 pointers : No
Read offset correction : 6
Overread into Lead-In and Lead-Out : No
Fill up missing offset samples with silence : Yes
Delete leading and trailing silent blocks : No
Null samples used in CRC calculations : Yes
Used interface : Native Win32 interface for Win NT & 2000
Gap handling : Appended to previous track
Used output format : User Defined Encoder
Selected bitrate : 128 kBit/s
Quality : High
Add ID3 tag : No
Command line compressor : C:\Program Files\Exact Audio Copy\Flac\flac.exe
Additional command line options : V -8 -T "artist=%a" -T "title=%t" -T "album=%g" -T "date=%y" -T "tracknumber=%n" -T "genre=%m" %s
TOC of the extracted CD
Track | Start | Length | Start sector | End sector
---------------------------------------------------------
1 | 0:00.00 | 3:51.17 | 0 | 17341
2 | 3:51.17 | 1:31.13 | 17342 | 24179
3 | 5:22.30 | 3:30.25 | 24180 | 39954
4 | 8:52.55 | 4:06.30 | 39955 | 58434
5 | 12:59.10 | 4:13.40 | 58435 | 77449
6 | 17:12.50 | 3:26.35 | 77450 | 92934
7 | 20:39.10 | 5:47.30 | 92935 | 118989
8 | 26:26.40 | 7:40.30 | 118990 | 153519
9 | 34:06.70 | 1:03.47 | 153520 | 158291
10 | 35:10.42 | 1:03.13 | 158292 | 163029
11 | 36:13.55 | 2:31.02 | 163030 | 174356
12 | 38:44.57 | 4:03.00 | 174357 | 192581
13 | 42:47.57 | 3:13.73 | 192582 | 207129
14 | 46:01.55 | 3:06.55 | 207130 | 221134
15 | 49:08.35 | 2:34.07 | 221135 | 232691
Track 1
Filename D:\Music\Zap Mama - 1993 - Adventures In Afropea 1\01 - Mupepe.wav
Pre-gap length 0:00:02.00
Peak level 94.0 %
Track quality 100.0 %
Test CRC 027FB674
Copy CRC 027FB674
Copy OK
Track 2
Filename D:\Music\Zap Mama - 1993 - Adventures In Afropea 1\02 - Bottom.wav
Pre-gap length 0:00:00.86
Peak level 76.6 %
Track quality 100.0 %
Test CRC 6416D561
Copy CRC 6416D561
Copy OK
Track 3
Filename D:\Music\Zap Mama - 1993 - Adventures In Afropea 1\03 - Brrrlak!.wav
Pre-gap length 0:00:00.44
Peak level 82.4 %
Track quality 100.0 %
Test CRC FF540961
Copy CRC FF540961
Copy OK
Track 4
Filename D:\Music\Zap Mama - 1993 - Adventures In Afropea 1\04 - Abadou.wav
Pre-gap length 0:00:02.13
Peak level 98.5 %
Track quality 99.9 %
Test CRC 808359EE
Copy CRC 808359EE
Copy OK
Track 5
Filename D:\Music\Zap Mama - 1993 - Adventures In Afropea 1\05 - Take Me Coco.wav
Pre-gap length 0:00:02.30
Peak level 91.6 %
Track quality 100.0 %
Test CRC A618CCD4
Copy CRC A618CCD4
Copy OK
Track 6
Filename D:\Music\Zap Mama - 1993 - Adventures In Afropea 1\06 - Plekete.wav
Pre-gap length 0:00:02.80
Peak level 95.2 %
Track quality 100.0 %
Test CRC 4E0B396E
Copy CRC 4E0B396E
Copy OK
Track 7
Filename D:\Music\Zap Mama - 1993 - Adventures In Afropea 1\07 - Mizike.wav
Pre-gap length 0:00:03.20
Peak level 85.4 %
Track quality 100.0 %
Test CRC 81D4B65E
Copy CRC 81D4B65E
Copy OK
Track 8
Filename D:\Music\Zap Mama - 1993 - Adventures In Afropea 1\08 - Babanzйlй.wav
Pre-gap length 0:00:00.10
Peak level 68.5 %
Track quality 100.0 %
Test CRC B9E981FC
Copy CRC B9E981FC
Copy OK
Track 9
Filename D:\Music\Zap Mama - 1993 - Adventures In Afropea 1\09 - Din Din.wav
Pre-gap length 0:00:05.06
Peak level 69.6 %
Track quality 100.0 %
Test CRC EC1C905D
Copy CRC EC1C905D
Copy OK
Track 10
Filename D:\Music\Zap Mama - 1993 - Adventures In Afropea 1\10 - I Ne Suhe.wav
Pre-gap length 0:00:02.69
Peak level 49.8 %
Track quality 100.0 %
Test CRC 98F3FB79
Copy CRC 98F3FB79
Copy OK
Track 11
Filename D:\Music\Zap Mama - 1993 - Adventures In Afropea 1\11 - Guzophela.wav
Pre-gap length 0:00:02.33
Peak level 94.3 %
Track quality 100.0 %
Test CRC A5604D12
Copy CRC A5604D12
Copy OK
Track 12
Filename D:\Music\Zap Mama - 1993 - Adventures In Afropea 1\12 - Nabombeli Yo.wav
Pre-gap length 0:00:00.53
Peak level 73.0 %
Track quality 100.0 %
Test CRC 30FBADDB
Copy CRC 30FBADDB
Copy OK
Track 13
Filename D:\Music\Zap Mama - 1993 - Adventures In Afropea 1\13 - Marie-Josйe.wav
Pre-gap length 0:00:02.86
Peak level 70.5 %
Track quality 100.0 %
Test CRC 2E3846F7
Copy CRC 2E3846F7
Copy OK
Track 14
Filename D:\Music\Zap Mama - 1993 - Adventures In Afropea 1\14 - Ndje Mukanie.wav
Pre-gap length 0:00:00.73
Peak level 90.6 %
Track quality 100.0 %
Test CRC 11E3412F
Copy CRC 11E3412F
Copy OK
Track 15
Filename D:\Music\Zap Mama - 1993 - Adventures In Afropea 1\15 - Son Cubano.wav
Pre-gap length 0:00:02.97
Peak level 97.3 %
Track quality 99.9 %
Test CRC 8DE44B24
Copy CRC 8DE44B24
Copy OK
No errors occurred
End of status report
 
Audiocheker's log
Started at: пятница, 15. 05. 2009. - 1:17.22
15 files found
01 -===- G:\Downloads\Zap Mama - 1993 - Adventures In Afropea 1\01 - Mupepe.flac
Extracted successfully
Conclusion: this track is CDDA with probability 100%
Tempfile successfully deleted.
02 -===- G:\Downloads\Zap Mama - 1993 - Adventures In Afropea 1\02 - Bottom.flac
Extracted successfully
Conclusion: this track is CDDA with probability 100%
Tempfile successfully deleted.
03 -===- G:\Downloads\Zap Mama - 1993 - Adventures In Afropea 1\03 - Brrrlak!.flac
Extracted successfully
Conclusion: this track is CDDA with probability 100%
Tempfile successfully deleted.
04 -===- G:\Downloads\Zap Mama - 1993 - Adventures In Afropea 1\04 - Abadou.flac
Extracted successfully
Conclusion: this track is CDDA with probability 100%
Tempfile successfully deleted.
05 -===- G:\Downloads\Zap Mama - 1993 - Adventures In Afropea 1\05 - Take Me Coco.flac
Extracted successfully
Conclusion: this track is CDDA with probability 100%
Tempfile successfully deleted.
06 -===- G:\Downloads\Zap Mama - 1993 - Adventures In Afropea 1\06 - Plekete.flac
Extracted successfully
Conclusion: this track is CDDA with probability 100%
Tempfile successfully deleted.
07 -===- G:\Downloads\Zap Mama - 1993 - Adventures In Afropea 1\07 - Mizike.flac
Extracted successfully
Conclusion: this track is CDDA with probability 100%
Tempfile successfully deleted.
08 -===- G:\Downloads\Zap Mama - 1993 - Adventures In Afropea 1\08 - Babanzele.flac
Error while extracting! Check your rights, free some space if needed and ensure the file is valid.
09 -===- G:\Downloads\Zap Mama - 1993 - Adventures In Afropea 1\09 - Din Din.flac
Extracted successfully
Conclusion: this track is CDDA with probability 100%
Tempfile successfully deleted.
10 -===- G:\Downloads\Zap Mama - 1993 - Adventures In Afropea 1\10 - I Ne Suhe.flac
Extracted successfully
Conclusion: this track is CDDA with probability 99%
Tempfile successfully deleted.
11 -===- G:\Downloads\Zap Mama - 1993 - Adventures In Afropea 1\11 - Guzophela.flac
Extracted successfully
Conclusion: this track is CDDA with probability 99%
Tempfile successfully deleted.
12 -===- G:\Downloads\Zap Mama - 1993 - Adventures In Afropea 1\12 - Nabombeli Yo.flac
Extracted successfully
Conclusion: this track is CDDA with probability 100%
Tempfile successfully deleted.
13 -===- G:\Downloads\Zap Mama - 1993 - Adventures In Afropea 1\13 - Marie-Josee.flac
Error while extracting! Check your rights, free some space if needed and ensure the file is valid.
14 -===- G:\Downloads\Zap Mama - 1993 - Adventures In Afropea 1\14 - Ndje Mukanie.flac
Extracted successfully
Conclusion: this track is CDDA with probability 100%
Tempfile successfully deleted.
15 -===- G:\Downloads\Zap Mama - 1993 - Adventures In Afropea 1\15 - Son Cubano.flac
Extracted successfully
Conclusion: this track is CDDA with probability 100%
Tempfile successfully deleted.
Finished at: пятница, 15. 05. 2009. - 1:27.20 (operation time: 0:09.57)
 
CUE
REM DATE 1993
REM DISCID BD0C1E0F
REM COMMENT "ExactAudioCopy v0.99pb4"
PERFORMER "Zap Mama"
TITLE "Adventures In Afropea 1"
FILE "01 - Mupepe.wav" WAVE
TRACK 01 AUDIO
TITLE "Mupepe"
PERFORMER "Zap Mama"
INDEX 01 00:00:00
TRACK 02 AUDIO
TITLE "Bottom"
PERFORMER "Zap Mama"
INDEX 00 03:50:27
FILE "02 - Bottom.wav" WAVE
INDEX 01 00:00:00
TRACK 03 AUDIO
TITLE "Brrrlak!"
PERFORMER "Zap Mama"
INDEX 00 01:30:55
FILE "03 - Brrrlak!.wav" WAVE
INDEX 01 00:00:00
TRACK 04 AUDIO
TITLE "Abadou"
PERFORMER "Zap Mama"
INDEX 00 03:28:15
FILE "04 - Abadou.wav" WAVE
INDEX 01 00:00:00
TRACK 05 AUDIO
TITLE "Take Me Coco"
PERFORMER "Zap Mama"
INDEX 00 04:04:07
FILE "05 - Take Me Coco.wav" WAVE
INDEX 01 00:00:00
TRACK 06 AUDIO
TITLE "Plekete"
PERFORMER "Zap Mama"
INDEX 00 04:10:55
FILE "06 - Plekete.wav" WAVE
INDEX 01 00:00:00
TRACK 07 AUDIO
TITLE "Mizike"
PERFORMER "Zap Mama"
INDEX 00 03:23:20
FILE "07 - Mizike.wav" WAVE
INDEX 01 00:00:00
TRACK 08 AUDIO
TITLE "Babanzйlй"
PERFORMER "Zap Mama"
INDEX 00 05:47:22
FILE "08 - Babanzйlй.wav" WAVE
INDEX 01 00:00:00
TRACK 09 AUDIO
TITLE "Din Din"
PERFORMER "Zap Mama"
INDEX 00 07:35:25
FILE "09 - Din Din.wav" WAVE
INDEX 01 00:00:00
TRACK 10 AUDIO
TITLE "I Ne Suhe"
PERFORMER "Zap Mama"
INDEX 00 01:00:70
FILE "10 - I Ne Suhe.wav" WAVE
INDEX 01 00:00:00
TRACK 11 AUDIO
TITLE "Guzophela"
PERFORMER "Zap Mama"
INDEX 00 01:00:63
FILE "11 - Guzophela.wav" WAVE
INDEX 01 00:00:00
TRACK 12 AUDIO
TITLE "Nabombeli Yo"
PERFORMER "Zap Mama"
INDEX 00 02:30:37
FILE "12 - Nabombeli Yo.wav" WAVE
INDEX 01 00:00:00
TRACK 13 AUDIO
TITLE "Marie-Josйe"
PERFORMER "Zap Mama"
INDEX 00 04:00:10
FILE "13 - Marie-Josйe.wav" WAVE
INDEX 01 00:00:00
TRACK 14 AUDIO
TITLE "Ndje Mukanie"
PERFORMER "Zap Mama"
INDEX 00 03:13:18
FILE "14 - Ndje Mukanie.wav" WAVE
INDEX 01 00:00:00
TRACK 15 AUDIO
TITLE "Son Cubano"
PERFORMER "Zap Mama"
INDEX 00 03:03:57
FILE "15 - Son Cubano.wav" WAVE
INDEX 01 00:00:00
Доп. информация:
Источник - другой трекер. Релизер - jlnfrtn.
По всем вопросам пишите личное сообщение пользователю M0p94ok.
06:19
163
Нет комментариев. Ваш будет первым!