Поиск

(Jazz, World Fusion) Vijay Iyer & Rudresh Mahanthappa - Raw Materials [2006], FLAC (tracks+.cue), lossless

Треклист:


Vijay Iyer & Rudresh Mahanthappa
Raw Materials
Жанр: Jazz, World Fusion
Год выпуска: 2006
Формат: FLAC (tracks+.cue)
Битрейт аудио: lossless
Продолжительность
Источник: ed2k

tracks

1. The Shape of Things play
2. All the Names
3. Forgotten System play
4. Remembrance
5. Frontlash
6. Five Fingers
7. Inside the Machine play
8. Stronger than Itself
9. Come Back
10. Fly Higher
11. Common Ground
12. Rataplan


 
logfile
Exact Audio Copy V0.99 prebeta 3 from 28. July 2007
EAC extraction logfile from 22. February 2009, 11:06
Vijay Iyer & Rudresh Mahanthappa / Raw Materials
Used drive : SONY DVD-ROM DDU1615 Adapter: 1 ID: 1
Read mode : Secure
Utilize accurate stream : Yes
Defeat audio cache : Yes
Make use of C2 pointers : No
Read offset correction : 6
Overread into Lead-In and Lead-Out : No
Fill up missing offset samples with silence : Yes
Delete leading and trailing silent blocks : No
Null samples used in CRC calculations : Yes
Used interface : Native Win32 interface for Win NT & 2000
Gap handling : Appended to previous track
Used output format : User Defined Encoder
Selected bitrate : 128 kBit/s
Quality : High
Add ID3 tag : No
Command line compressor : C:\Program Files\FLAC\flac.exe
Additional command line options : -V -8 -T "artist=%a" -T "title=%t" -T "album=%g" -T "date=%y" -T "tracknumber=%n" -T "genre=%m" %s
TOC of the extracted CD
Track | Start | Length | Start sector | End sector
---------------------------------------------------------
1 | 0:00.00 | 3:25.49 | 0 | 15423
2 | 3:25.49 | 5:07.16 | 15424 | 38464
3 | 8:32.65 | 5:44.51 | 38465 | 64315
4 | 14:17.41 | 4:28.33 | 64316 | 84448
5 | 18:45.74 | 4:23.35 | 84449 | 104208
6 | 23:09.34 | 2:58.35 | 104209 | 117593
7 | 26:07.69 | 3:07.48 | 117594 | 131666
8 | 29:15.42 | 2:18.58 | 131667 | 142074
9 | 31:34.25 | 6:19.06 | 142075 | 170505
10 | 37:53.31 | 3:10.19 | 170506 | 184774
11 | 41:03.50 | 5:54.54 | 184775 | 211378
12 | 46:58.29 | 4:18.54 | 211379 | 230782
13 | 51:17.08 | 6:01.57 | 230783 | 257914
Track 1
Filename X:\Seeding\FLAC\Vijay Iyer & Rudresh Mahanthappa - Raw Materials\01 - The Shape of Things.wav
Pre-gap length 0:00:02.00
Peak level 96.6 %
Track quality 100.0 %
Test CRC E4553B72
Copy CRC E4553B72
Copy OK
Track 2
Filename X:\Seeding\FLAC\Vijay Iyer & Rudresh Mahanthappa - Raw Materials\02 - All the Names.wav
Peak level 96.6 %
Track quality 100.0 %
Test CRC 584BBFAA
Copy CRC 584BBFAA
Copy OK
Track 3
Filename X:\Seeding\FLAC\Vijay Iyer & Rudresh Mahanthappa - Raw Materials\03 - Forgotten System.wav
Pre-gap length 0:00:02.45
Peak level 96.6 %
Track quality 99.9 %
Test CRC 56A3D6BA
Copy CRC 56A3D6BA
Copy OK
Track 4
Filename X:\Seeding\FLAC\Vijay Iyer & Rudresh Mahanthappa - Raw Materials\04 - Remembrance.wav
Pre-gap length 0:00:01.02
Peak level 96.6 %
Track quality 100.0 %
Test CRC 06E7C046
Copy CRC 06E7C046
Copy OK
Track 5
Filename X:\Seeding\FLAC\Vijay Iyer & Rudresh Mahanthappa - Raw Materials\05 - Frontlash.wav
Pre-gap length 0:00:00.64
Peak level 96.6 %
Track quality 100.0 %
Test CRC 3AEC23A5
Copy CRC 3AEC23A5
Copy OK
Track 6
Filename X:\Seeding\FLAC\Vijay Iyer & Rudresh Mahanthappa - Raw Materials\06 - Five Fingers Make a Fist.wav
Peak level 96.6 %
Track quality 100.0 %
Test CRC E05F31BE
Copy CRC E05F31BE
Copy OK
Track 7
Filename X:\Seeding\FLAC\Vijay Iyer & Rudresh Mahanthappa - Raw Materials\07 - Inside the Machine.wav
Peak level 96.6 %
Track quality 99.9 %
Test CRC DCBB892C
Copy CRC DCBB892C
Copy OK
Track 8
Filename X:\Seeding\FLAC\Vijay Iyer & Rudresh Mahanthappa - Raw Materials\08 - Stronger Than Itself.wav
Pre-gap length 0:00:00.01
Peak level 96.6 %
Track quality 100.0 %
Test CRC 1EB6C851
Copy CRC 1EB6C851
Copy OK
Track 9
Filename X:\Seeding\FLAC\Vijay Iyer & Rudresh Mahanthappa - Raw Materials\09 - Come Back.wav
Peak level 74.9 %
Track quality 100.0 %
Test CRC 09979884
Copy CRC 09979884
Copy OK
Track 10
Filename X:\Seeding\FLAC\Vijay Iyer & Rudresh Mahanthappa - Raw Materials\10 - Fly Higher.wav
Peak level 76.7 %
Track quality 99.9 %
Test CRC E634AB2D
Copy CRC E634AB2D
Copy OK
Track 11
Filename X:\Seeding\FLAC\Vijay Iyer & Rudresh Mahanthappa - Raw Materials\11 - Common Ground.wav
Peak level 96.6 %
Track quality 100.0 %
Test CRC DC11B29F
Copy CRC DC11B29F
Copy OK
Track 12
Filename X:\Seeding\FLAC\Vijay Iyer & Rudresh Mahanthappa - Raw Materials\12 - Rataplan.wav
Peak level 96.6 %
Track quality 100.0 %
Test CRC B7BDB319
Copy CRC B7BDB319
Copy OK
Track 13
Filename X:\Seeding\FLAC\Vijay Iyer & Rudresh Mahanthappa - Raw Materials\13 - Hope.wav
Pre-gap length 0:00:02.78
Peak level 96.6 %
Track quality 100.0 %
Test CRC 6C54A6A0
Copy CRC 6C54A6A0
Copy OK
No errors occurred
End of status report

другие релизы
07:18
202
Нет комментариев. Ваш будет первым!