Поиск

(Smooth Soul/Motown) Marvin Gaye — Here, My Dear (1979)/ In Our Lifetime (1981) - 2001, FLAC (image+.cue), lossless

(Smooth Soul/Motown) Marvin Gaye — Here, My Dear (1979)/ In Our Lifetime (1981) - 2001, FLAC (image+.cue), lossless
Треклист:
Marvin Gaye — Here, My Dear (1979)/ In Our Lifetime (1981)
Жанр: Smooth Soul/Motown
Год выпуска диска: 2001
Производитель диска: UK (Motown)
Аудио кодек: FLAC
Тип рипа: image+.cue
Битрейт аудио: lossless
Продолжительность: 73:14+46:39
Трэклист:
CD 1 "Here, My Dear" (1979)
01. Here, My Dear 02:48
02. I Met a Little Girl 05:03
03. When Did You Stop Loving Me, When Did I Stop Loving You 06:18
04. Anger 04:03
05. Is That Enough 07:47
06. Everybody Needs Love 05:48
07. Time to Get it Together 03:55
08. Sparrow 06:13
09. Anna's Song 05:55
10. When Did You Stop Loving Me, When Did I Stop Loving You (Instrumental) 06:03
11. A Funky Space Reincarnation 08:18
12. You Can Leave, But it's Going to Cost You 05:33
13. Falling in Love Again 04:38
14. When Did You Stop Loving Me, When Did I Stop Loving You (Reprise) 00:44
 
отчёт ЕАС
Exact Audio Copy V0.99 prebeta 4 from 23. January 2008
Отчёт EAC об извлечении, выполненном 23. декабря 2009, 17:31
Marvin Gaye / Here, My Dear
Дисковод: Optiarc DVD RW AD-7203S Adapter: 1 ID: 1
Режим чтения : Достоверность
Использование точного потока : Да
Отключение кэша аудио : Да
Использование указателей C2 : Нет
Коррекция смещения при чтении : 48
Способность читать области Lead-in и Lead-out : Нет
Заполнение пропущенных сэмплов тишиной : Да
Удаление блоков с тишиной в начале и конце : Нет
При вычислениях CRC использовались нулевые сэмплы : Да
Интерфейс : Встроенный Win32-интерфейс для Win NT/2000
Выходной формат : Пользовательский кодировщик
Выбранный битрейт : 1024 kBit/s
Качество : Высокий
Добавление ID3-тэга : Нет
Утилита сжатия : C:\Program Files\Exact Audio Copy\Flac\flac.exe
Дополнительные параметры : -V -8 -T "artist=%a" -T "title=%t" -T "album=%g" -T "date=%y" -T "tracknumber=%n" -T "genre=%m" %s
TOC извлечённого CD
Трек | Старт | Длительность | Начальный сектор | Конечный сектор
---------------------------------------------------------------------
1 | 0:00.00 | 2:48.50 | 0 | 12649
2 | 2:48.50 | 5:03.47 | 12650 | 35421
3 | 7:52.22 | 6:18.05 | 35422 | 63776
4 | 14:10.27 | 4:03.60 | 63777 | 82061
5 | 18:14.12 | 7:47.65 | 82062 | 117151
6 | 26:02.02 | 5:48.25 | 117152 | 143276
7 | 31:50.27 | 3:55.48 | 143277 | 160949
8 | 35:46.00 | 6:13.07 | 160950 | 188931
9 | 41:59.07 | 5:55.60 | 188932 | 215616
10 | 47:54.67 | 6:03.60 | 215617 | 242901
11 | 53:58.52 | 8:18.48 | 242902 | 280299
12 | 62:17.25 | 5:33.05 | 280300 | 305279
13 | 67:50.30 | 4:38.67 | 305280 | 326196
14 | 72:29.22 | 0:44.63 | 326197 | 329559
Характеристики диапазона извлечения и сообщения об ошибках
Выбранный диапазон
Имя файла D:\EAC-FOLDER\Marvin Gaye-78-79\Marvin Gaye - Here, My Dear\Marvin Gaye - Here, My Dear.wav
Пиковый уровень 98.7 %
Качество диапазона 100.0 %
CRC теста 5B502B5E
CRC копии 5B502B5E
Копирование... OK
Ошибок не произошло
AccurateRip: сводка
Трек 1 точное извлечение (доверие 3) [8A67E485]
Трек 2 точное извлечение (доверие 4) [5887F2CA]
Трек 3 точное извлечение (доверие 4) [45A31970]
Трек 4 точное извлечение (доверие 4) [43FB416E]
Трек 5 точное извлечение (доверие 4) [D9D28A9B]
Трек 6 точное извлечение (доверие 4) [1B6AB54E]
Трек 7 точное извлечение (доверие 4) [389540DC]
Трек 8 точное извлечение (доверие 4) [7EF09D67]
Трек 9 точное извлечение (доверие 4) [E57B030B]
Трек 10 точное извлечение (доверие 4) [579D07DB]
Трек 11 точное извлечение (доверие 4) [DDE8D272]
Трек 12 точное извлечение (доверие 4) [E284541B]
Трек 13 точное извлечение (доверие 3) [3A17A6ED]
Трек 14 точное извлечение (доверие 4) [88B3F2F3]
Все треки извлечены точно
Конец отчёта
CD 2 "In Our Lifetime" (1981)
01. Ego Tripping Out 07:16
02. Praise 04:53
03. Life Is For Learning 03:40
04. Love Party 05:00
05. Funk Me 05:28
06. Far Cry 04:33
07. Love Me Now Or Love Me Later 04:59
08. Heavy Love Affair 03:48
09. In Our Lifetime 07:00
 
отчёт ЕАС
Exact Audio Copy V0.99 prebeta 4 from 23. January 2008
Отчёт EAC об извлечении, выполненном 23. декабря 2009, 18:23
Marvin Gaye / In Our Lifetime
Дисковод: Optiarc DVD RW AD-7203S Adapter: 1 ID: 1
Режим чтения : Достоверность
Использование точного потока : Да
Отключение кэша аудио : Да
Использование указателей C2 : Нет
Коррекция смещения при чтении : 48
Способность читать области Lead-in и Lead-out : Нет
Заполнение пропущенных сэмплов тишиной : Да
Удаление блоков с тишиной в начале и конце : Нет
При вычислениях CRC использовались нулевые сэмплы : Да
Интерфейс : Встроенный Win32-интерфейс для Win NT/2000
Выходной формат : Пользовательский кодировщик
Выбранный битрейт : 1024 kBit/s
Качество : Высокий
Добавление ID3-тэга : Нет
Утилита сжатия : C:\Program Files\Exact Audio Copy\Flac\flac.exe
Дополнительные параметры : -V -8 -T "artist=%a" -T "title=%t" -T "album=%g" -T "date=%y" -T "tracknumber=%n" -T "genre=%m" %s
TOC извлечённого CD
Трек | Старт | Длительность | Начальный сектор | Конечный сектор
---------------------------------------------------------------------
1 | 0:00.00 | 7:16.00 | 0 | 32699
2 | 7:16.00 | 4:53.07 | 32700 | 54681
3 | 12:09.07 | 3:40.13 | 54682 | 71194
4 | 15:49.20 | 5:00.17 | 71195 | 93711
5 | 20:49.37 | 5:28.43 | 93712 | 118354
6 | 26:18.05 | 4:33.07 | 118355 | 138836
7 | 30:51.12 | 4:59.43 | 138837 | 161304
8 | 35:50.55 | 3:48.32 | 161305 | 178436
9 | 39:39.12 | 7:00.03 | 178437 | 209939
Характеристики диапазона извлечения и сообщения об ошибках
Выбранный диапазон
Имя файла D:\EAC-FOLDER\Marvin Gaye-78-79\Marvin Gaye - In Our Lifetime\Marvin Gaye - In Our Lifetime.wav
Пиковый уровень 99.9 %
Качество диапазона 100.0 %
CRC теста 80CD619C
CRC копии 80CD619C
Копирование... OK
Ошибок не произошло
AccurateRip: сводка
Трек 1 точное извлечение (доверие 3) [8DC18739]
Трек 2 точное извлечение (доверие 3) [B0239EE9]
Трек 3 точное извлечение (доверие 3) [378AEA29]
Трек 4 точное извлечение (доверие 3) [474D837A]
Трек 5 точное извлечение (доверие 3) [06F91480]
Трек 6 точное извлечение (доверие 3) [D8F52BD9]
Трек 7 точное извлечение (доверие 3) [AAD9E5C9]
Трек 8 точное извлечение (доверие 3) [C752C8D6]
Трек 9 точное извлечение (доверие 3) [8BE8DEC8]
Все треки извлечены точно
Конец отчёта
Доп. информация:
Прощальные альбомы Траблмэна для Мотауна. "Два в одном".
PS Рип свой, внутри сканы даблслимбокса и слипкейса.
Приватный:
Да (DHT отключён)
Размер:
804.54 Мб (843,616,988 байт) » файлов: 11
Участники:
0 раздают, 0 качают (0 участников всего)
Внешние участники:
5 раздают, 1 качают (6 участников всего) [ Обновить ]
Нет сидеров - пишите личное сообщение M0p94ok. Не нравятся торренты? Участники группы Pro-jazz Club могут заказать прямую ссылку на скачивание из облака.
No seeders - write a personal message to M0p94ok. Don't like torrents? Members of Pro-jazz Club group can order a direct download link from the cloud.
02:04
31
Нет комментариев. Ваш будет первым!