Поиск

(Funk) James Brown - The Wonderful World Of 1962-1966 (1992) - 1992, FLAC (tracks+.cue)

(Funk) James Brown - The Wonderful World Of 1962-1966 (1992) - 1992, FLAC (tracks+.cue)
Треклист:
James Brown - The Wonderful World Of 1962-1966 (1992)
Жанр: Funk
Год выпуска диска: 1992
Производитель диска: USA
Аудио кодек: FLAC
Тип рипа: tracks+.cue
Битрейт аудио: lossless
Продолжительность: 01:14:13
Трэклист:
01. Night Train [03:41]
02. Shout And Shimmy (live) [01:37]
03. Like A Baby [02:52]
04. I've Got Money [02:32]
05. Prisoner Of Love [02:24]
06. These Foolish Things LIVE [02:52]
07. (Can You) Feel It - Part 1 [02:57]
08. Lost Someone [03:25]
09. Signed, Sealed, And Delivered [02:43]
10. Waiting In Vain [02:47]
11. In The Wee Wee Hours (Of The Nite) [02:52]
12. Oh Baby Don't You Weep LIVE [06:57]
13. Again [02:34]
14. How Long Darling [02:54]
15. So Long [02:47]
16. The Things That I Used To Do [02:48]
17. Out Of Sight [02:21]
18. Maybe The Last Time [03:01]
19. Have Mercy Baby [02:14]
20. I Got You (I Feel Good) [02:46]
21. Papa's Got A Brand New Bag - Part 1 [02:08]
22. Ain't That A Groove - Part 1 [03:31]
23. It's A Man's Man's Man's World [03:19]
24. Money Won't Change You [06:02]
Доп. информация: Джеймс Браун (3 мая 1933 — 25 декабря 2006) родился в Южной Каролине, однако большую часть жизни провёл и умер в Атланте, штат Джорджия. Вырос в нищете, зарабатывал на жизнь мелкими кражами, в 16 лет был приговорен к восьми годам заключения за участие в грабеже. Во время отсидки стал выступать для других заключённых, используя стиральную доску и прочие нехитрые приспособления. По выходе на свободу пытался найти свое призвание в бейсболе и боксе. По приглашению продюсера, видевшего его выступление в тюрьме, записался в музыкальный коллектив The Famous Flames и вскоре стал его лидером.
 
EAC Log
Exact Audio Copy V0.99 prebeta 4 from 23. January 2008
EAC extraction logfile from 22. April 2009, 7:57
James Brown / The Wonderful World Of James Brown 1962-1966
Used drive : TSSTcorpCD/DVDW SH-S182D Adapter: 1 ID: 0
Read mode : Secure
Utilize accurate stream : Yes
Defeat audio cache : No
Make use of C2 pointers : No
Read offset correction : 6
Overread into Lead-In and Lead-Out : Yes
Fill up missing offset samples with silence : Yes
Delete leading and trailing silent blocks : No
Null samples used in CRC calculations : No
Used interface : Native Win32 interface for Win NT & 2000
Gap handling : Not detected, thus appended to previous track
Used output format : User Defined Encoder
Selected bitrate : 1024 kBit/s
Quality : High
Add ID3 tag : No
Command line compressor : C:\Program Files\Exact Audio Copy\FLAC\FLAC.EXE
Additional command line options : -3 -V -T "ARTIST=%a" -T "TITLE=%t" -T "ALBUM=%g" -T "DATE=%y" -T "TRACKNUMBER=%n" -T "GENRE=%m" -T "COMMENT=%e" %s -o %d
Use compression offset : 6
TOC of the extracted CD
Track | Start | Length | Start sector | End sector
---------------------------------------------------------
1 | 0:00.33 | 3:41.25 | 33 | 16632
2 | 3:41.58 | 1:37.12 | 16633 | 23919
3 | 5:18.70 | 2:52.45 | 23920 | 36864
4 | 8:11.40 | 2:32.40 | 36865 | 48304
5 | 10:44.05 | 2:24.03 | 48305 | 59107
6 | 13:08.08 | 2:51.70 | 59108 | 72002
7 | 16:00.03 | 2:57.22 | 72003 | 85299
8 | 18:57.25 | 3:25.08 | 85300 | 100682
9 | 22:22.33 | 2:43.27 | 100683 | 112934
10 | 25:05.60 | 2:47.18 | 112935 | 125477
11 | 27:53.03 | 2:52.07 | 125478 | 138384
12 | 30:45.10 | 6:57.60 | 138385 | 169719
13 | 37:42.70 | 2:33.73 | 169720 | 181267
14 | 40:16.68 | 2:54.57 | 181268 | 194374
15 | 43:11.50 | 2:47.25 | 194375 | 206924
16 | 45:59.00 | 2:48.65 | 206925 | 219589
17 | 48:47.65 | 2:21.28 | 219590 | 230192
18 | 51:09.18 | 3:01.30 | 230193 | 243797
19 | 54:10.48 | 2:14.05 | 243798 | 253852
20 | 56:24.53 | 2:46.17 | 253853 | 266319
21 | 59:10.70 | 2:08.00 | 266320 | 275919
22 | 61:18.70 | 3:30.70 | 275920 | 291739
23 | 64:49.65 | 3:19.05 | 291740 | 306669
24 | 68:08.70 | 6:02.05 | 306670 | 333824
Track 1
Filename C:\New Folder\01. Night Train.wav
Peak level 85.4 %
Track quality 100.0 %
Copy CRC DB8B3571
Track not present in AccurateRip database
Copy OK
Track 2
Filename C:\New Folder\02. Shout And Shimmy LIVE.wav
Peak level 79.8 %
Track quality 100.0 %
Copy CRC AAD4D061
Track not present in AccurateRip database
Copy OK
Track 3
Filename C:\New Folder\03. Like A Baby.wav
Peak level 82.2 %
Track quality 100.0 %
Copy CRC FC17C4B3
Track not present in AccurateRip database
Copy OK
Track 4
Filename C:\New Folder\04. I've Got Money.wav
Peak level 90.2 %
Track quality 100.0 %
Copy CRC 9268330A
Track not present in AccurateRip database
Copy OK
Track 5
Filename C:\New Folder\05. Prisoner Of Love.wav
Peak level 85.6 %
Track quality 100.0 %
Copy CRC 086385F2
Track not present in AccurateRip database
Copy OK
Track 6
Filename C:\New Folder\06. These Foolish Things LIVE.wav
Peak level 88.0 %
Track quality 100.0 %
Copy CRC FC82C394
Track not present in AccurateRip database
Copy OK
Track 7
Filename C:\New Folder\07. (Can You) Feel It - Part 1.wav
Peak level 90.4 %
Track quality 99.9 %
Copy CRC 58035736
Track not present in AccurateRip database
Copy OK
Track 8
Filename C:\New Folder\08. Lost Someone.wav
Peak level 90.4 %
Track quality 100.0 %
Copy CRC D03FD9C1
Track not present in AccurateRip database
Copy OK
Track 9
Filename C:\New Folder\09. Signed, Sealed, And Delivered.wav
Peak level 74.4 %
Track quality 99.9 %
Copy CRC A8B93690
Track not present in AccurateRip database
Copy OK
Track 10
Filename C:\New Folder\10. Waiting In Vain.wav
Peak level 82.1 %
Track quality 100.0 %
Copy CRC 97BCC4ED
Track not present in AccurateRip database
Copy OK
Track 11
Filename C:\New Folder\11. In The Wee Wee Hours (Of The Nite).wav
Peak level 93.6 %
Track quality 100.0 %
Copy CRC 342984FE
Track not present in AccurateRip database
Copy OK
Track 12
Filename C:\New Folder\12. Oh Baby Don't You Weep LIVE.wav
Peak level 84.3 %
Track quality 100.0 %
Copy CRC 9C26F1CD
Track not present in AccurateRip database
Copy OK
Track 13
Filename C:\New Folder\13. Again.wav
Peak level 89.7 %
Track quality 100.0 %
Copy CRC 3C75CD8A
Track not present in AccurateRip database
Copy OK
Track 14
Filename C:\New Folder\14. How Long Darling.wav
Peak level 87.8 %
Track quality 100.0 %
Copy CRC DE2873C5
Track not present in AccurateRip database
Copy OK
Track 15
Filename C:\New Folder\15. So Long.wav
Peak level 88.7 %
Track quality 100.0 %
Copy CRC 4E1B1D91
Track not present in AccurateRip database
Copy OK
Track 16
Filename C:\New Folder\16. The Things That I Used To Do.wav
Peak level 95.1 %
Track quality 100.0 %
Copy CRC B6B3F8D3
Track not present in AccurateRip database
Copy OK
Track 17
Filename C:\New Folder\17. Out Of Sight.wav
Peak level 87.8 %
Track quality 100.0 %
Copy CRC 1E0E2081
Track not present in AccurateRip database
Copy OK
Track 18
Filename C:\New Folder\18. Maybe The Last Time.wav
Peak level 99.2 %
Track quality 100.0 %
Copy CRC 9C32A0DB
Track not present in AccurateRip database
Copy OK
Track 19
Filename C:\New Folder\19. Have Mercy Baby.wav
Peak level 90.0 %
Track quality 100.0 %
Copy CRC CB9296D3
Track not present in AccurateRip database
Copy OK
Track 20
Filename C:\New Folder\20. I Got You (I Feel Good).wav
Peak level 88.2 %
Track quality 100.0 %
Copy CRC 122168E6
Track not present in AccurateRip database
Copy OK
Track 21
Filename C:\New Folder\21. Papa's Got A Brand New Bag - Part 1.wav
Peak level 86.6 %
Track quality 100.0 %
Copy CRC 1AE34D12
Track not present in AccurateRip database
Copy OK
Track 22
Filename C:\New Folder\22. Ain't That A Groove - Part 1.wav
Peak level 94.7 %
Track quality 100.0 %
Copy CRC 48331693
Track not present in AccurateRip database
Copy OK
Track 23
Filename C:\New Folder\23. It's A Man's Man's Man's World.wav
Peak level 94.0 %
Track quality 100.0 %
Copy CRC 9565E604
Track not present in AccurateRip database
Copy OK
Track 24
Filename C:\New Folder\24. Money Won't Change You.wav
Peak level 84.0 %
Track quality 100.0 %
Copy CRC F73016BD
Track not present in AccurateRip database
Copy OK
None of the tracks are present in the AccurateRip database
No errors occurred
End of status report
Приватный:
Нет (DHT включён)
Размер:
467.31 Мб (490,008,532 байт) » файлов: 30
Участники:
0 раздают, 0 качают (0 участников всего)
Внешние участники:
--- [ Обновить ]
Никого нет на раздаче - пишите личное сообщение M0p94ok
No seeders - write personal message to M0p94ok
02:03
24
Нет комментариев. Ваш будет первым!