Поиск

(Smooth Pop Fusion Jazz) [CD] Jeff Golub With Brian Auger - Train Keeps A Rolling - 2013, FLAC (image+.cue), lossless

(Smooth Pop Fusion Jazz) [CD] Jeff Golub With Brian Auger - Train Keeps A Rolling - 2013, FLAC (image+.cue), lossless
Треклист:
Jeff Golub With Brian Auger / Train Keeps A Rolling
Жанр: Smooth Pop Fusion Jazz
Носитель: CD
Страна-производитель диска: Russia
Год издания: 2013
Издатель (лейбл): Пирато & Бандито
Страна: USA
Аудиокодек: FLAC (*.flac)
Тип рипа: image+.cue
Битрейт аудио: lossless
Продолжительность: 47'49''
Источник (релизер): BluesHouse
Наличие сканов в содержимом раздачи: да
Треклист:
CD: Jeff Golub With Brian Auger - Train Keeps A Rolling
01. The Cat [0:03:18.01]
02. Isola Natale [0:04:19.66]
03. Train Keeps A Rolling [0:03:39.31]
04. I Love The Life I Live [0:05:12.48]
05. Pusherman [0:04:43.37]
06. How Long [0:03:54.68]
07. J&B [0:03:32.59]
08. Happiness Is Just Around The Bend [0:04:42.66]
09. Shepherds Bush Market [0:04:02.44]
10. Whenever You're Ready [0:04:33.65]
11. Walking On The Moon [0:05:46.58]
 
Лог создания рипа
Exact Audio Copy V1.0 beta 3 from 29. August 2011
Отчёт EAC об извлечении, выполненном 21. сентября 2013, 4:37
Jeff Golub With Brian Auger / Train Keeps A Rolling
Дисковод: PLEXTOR DVDR PX-891SA Adapter: 1 ID: 0
Режим чтения : Достоверность
Использование точного потока : Да
Отключение кэша аудио : Да
Использование указателей C2 : Нет
Коррекция смещения при чтении : 6
Способность читать области Lead-in и Lead-out : Нет
Заполнение пропущенных сэмплов тишиной : Да
Удаление блоков с тишиной в начале и конце : Нет
При вычислениях CRC использовались нулевые сэмплы : Да
Интерфейс : Встроенный Win32-интерфейс для Win NT/2000
Выходной формат : Пользовательский кодировщик
Выбранный битрейт : 768 kBit/s
Качество : Высокий
Добавление ID3-тега : Нет
Утилита сжатия : C:\Program Files\Exact Audio Copy\FLAC\FLAC.EXE
Дополнительные параметры : -6 -V -T "ARTIST=%artist%" -T "TITLE=%title%" -T "ALBUM=%albumtitle%" -T "DATE=%year%" -T "TRACKNUMBER=%tracknr%" -T "GENRE=%genre%" -T "COMMENT=%comment%" -T "BAND=%albuminterpret%" -T "ALBUMARTIST=%albuminterpret%" -T "COMPOSER=%composer%" %haslyrics%--tag-from-file=LYRICS="%lyricsfile%"%haslyrics% -T "DISCNUMBER=%cdnumber%" -T "TOTALDISCS=%totalcds%" -T "TOTALTRACKS=%numtracks%" %hascover%--picture="%coverfile%"%hascover% %source% -o %dest%
TOC извлечённого CD
Трек | Старт | Длительность | Начальный сектор | Конечный сектор
---------------------------------------------------------------------
1 | 0:00.00 | 3:18.01 | 0 | 14850
2 | 3:18.01 | 4:19.66 | 14851 | 34341
3 | 7:37.67 | 3:39.31 | 34342 | 50797
4 | 11:17.23 | 5:12.48 | 50798 | 74245
5 | 16:29.71 | 4:43.37 | 74246 | 95507
6 | 21:13.33 | 3:54.68 | 95508 | 113125
7 | 25:08.26 | 3:32.59 | 113126 | 129084
8 | 28:41.10 | 4:42.66 | 129085 | 150300
9 | 33:24.01 | 4:02.44 | 150301 | 168494
10 | 37:26.45 | 4:33.65 | 168495 | 189034
11 | 42:00.35 | 5:46.58 | 189035 | 215042
Характеристики диапазона извлечения и сообщения об ошибках
Выбранный диапазон
Имя файла K:\New Discs at 20.09.13\Jeff Golub With Brian Auger - Train Keeps A Rolling - 2013 - 47'49''\Jeff Golub With Brian Auger - Train Keeps A Rolling.wav
Пиковый уровень 100.0 %
Скорость извлечения 3.0 X
Качество диапазона 99.9 %
CRC теста 605F174F
CRC копии 605F174F
Копирование... OK
Ошибок не произошло
Конец отчёта
---- CUETools DB Plugin V2.1.3
[CTDB TOCID: wBNWiP42Rs0QQM_4alVtvVMFCdQ-] found, Submit result: wBNWiP42Rs0QQM_4alVtvVMFCdQ- has been confirmed
[b68bdc0a] (1/2) Accurately ripped
[33196ec6] (1/2) Differs in 1606 samples @47:47:03-47:47:05
You can use CUETools to repair this rip.
==== Контрольная сумма отчёта 9295BB5A374D6900B1617B108EAE696C2B446F13F1D24EBCFDAE378E0DCB2BD6 ====
 
Содержание индексной карты (.CUE)
REM GENRE "Smooth Jazz"
REM DATE 2013
REM DISCID 850B330B
REM COMMENT "ExactAudioCopy v1.0b3"
PERFORMER "Jeff Golub With Brian Auger"
TITLE "Train Keeps A Rolling"
FILE "Jeff Golub With Brian Auger - Train Keeps A Rolling.flac" WAVE
TRACK 01 AUDIO
TITLE "The Cat"
PERFORMER "Jeff Golub With Brian Auger"
FLAGS DCP
INDEX 01 00:00:00
TRACK 02 AUDIO
TITLE "Isola Natale"
PERFORMER "Jeff Golub With Brian Auger"
FLAGS DCP
INDEX 01 03:18:01
TRACK 03 AUDIO
TITLE "Train Keeps A Rolling"
PERFORMER "Jeff Golub With Brian Auger"
FLAGS DCP
INDEX 01 07:37:67
TRACK 04 AUDIO
TITLE "I Love The Life I Live"
PERFORMER "Jeff Golub With Brian Auger"
FLAGS DCP
INDEX 01 11:17:23
TRACK 05 AUDIO
TITLE "Pusherman"
PERFORMER "Jeff Golub With Brian Auger"
FLAGS DCP
INDEX 01 16:29:71
TRACK 06 AUDIO
TITLE "How Long"
PERFORMER "Jeff Golub With Brian Auger"
FLAGS DCP
INDEX 01 21:13:33
TRACK 07 AUDIO
TITLE "J&B"
PERFORMER "Jeff Golub With Brian Auger"
FLAGS DCP
INDEX 01 25:08:26
TRACK 08 AUDIO
TITLE "Happiness Is Just Around The Bend"
PERFORMER "Jeff Golub With Brian Auger"
FLAGS DCP
INDEX 01 28:41:10
TRACK 09 AUDIO
TITLE "Shepherds Bush Market"
PERFORMER "Jeff Golub With Brian Auger"
FLAGS DCP
INDEX 01 33:24:01
TRACK 10 AUDIO
TITLE "Whenever You're Ready"
PERFORMER "Jeff Golub With Brian Auger"
FLAGS DCP
INDEX 01 37:26:45
TRACK 11 AUDIO
TITLE "Walking On The Moon"
PERFORMER "Jeff Golub With Brian Auger"
FLAGS DCP
INDEX 01 42:00:35
 
Лог проверки качества
-----------------------
DON'T MODIFY THIS FILE
-----------------------
PERFORMER: auCDtect Task Manager, ver. 1.5.1RC4 build 1.5.1.5
Copyright (c) 2008-2010 y-soft. All rights reserved
http://y-soft.org
ANALYZER: auCDtect: CD records authenticity detector, version 0.8.2
Copyright (c) 2004 Oleg Berngardt. All rights reserved.
Copyright (c) 2004 Alexander Djourik. All rights reserved.
FILE: Jeff Golub With Brian Auger - Train Keeps A Rolling.flac
Size: 334918896 Hash: 451D956FC0E70FAC01AA631733212338 Accuracy: -m0
Conclusion: CDDA 100%
Signature: 7BD28A6E646476CE02BCA6691F80490E0D180DBD
Приватный:
Нет (DHT включён)
Размер:
349.24 Мб (366,199,443 байт) » файлов: 12
Участники:
0 раздают, 0 качают (0 участников всего)
Внешние участники:
3 раздают, 1 качают (4 участников всего) [ Обновить ]
For power users only: no seeders - write personal message to M0p94ok. Для power user: нет сидеров - пишите в личку M0p94ok.
07:09
185
Нет комментариев. Ваш будет первым!