Поиск

(Smooth Jazz/Contemporary Jazz) [CD] Chris Standring - Don't Talk, Dance - 2014, FLAC (image+.cue), lossless

(Smooth Jazz/Contemporary Jazz) [CD] Chris Standring - Don't Talk, Dance - 2014, FLAC (image+.cue), lossless
Треклист:
Chris Standring / Don't Talk, Dance
Жанр: Smooth Jazz/Contemporary Jazz
Носитель: CD
Страна-производитель диска: Russia
Год издания: 2014
Издатель (лейбл): Лирато & Бандито
Аудиокодек: FLAC (*.flac)
Тип рипа: image+.cue
Битрейт аудио: lossless
Продолжительность: 59'07''
Источник (релизер): RedHotBlues
Наличие сканов в содержимом раздачи: да
Треклист:
CD: Chris Standring - Don't Talk, Dance
01. Sky High [0:05:18.47]
02. Inside Outside [0:03:56.36]
03. Sneakin' Out The Front Door [0:03:54.69]
04. Voices In My Head [0:04:16.56]
05. Soul Symphony [0:04:21.36]
06. Another Fine Mess [0:04:50.47]
07. Crazy Bom Baizy [0:05:34.22]
08. Ride [0:04:15.20]
09. Absolute Madness [0:04:20.15]
10. Yesterday's Heaven [0:04:34.32]
11. Imagine That [0:03:57.58]
12. Scatterfunk [0:05:07.51]
13. Nothing Lasts Forever [0:04:36.38]
 
Лог создания рипа
Exact Audio Copy V1.0 beta 3 from 29. August 2011
Отчёт EAC об извлечении, выполненном 2. апреля 2014, 21:13
Chris Standring / Don't Talk, Dance
Дисковод: PLEXTOR DVDR PX-891SA Adapter: 1 ID: 0
Режим чтения : Достоверность
Использование точного потока : Да
Отключение кэша аудио : Да
Использование указателей C2 : Нет
Коррекция смещения при чтении : 6
Способность читать области Lead-in и Lead-out : Нет
Заполнение пропущенных сэмплов тишиной : Да
Удаление блоков с тишиной в начале и конце : Нет
При вычислениях CRC использовались нулевые сэмплы : Да
Интерфейс : Встроенный Win32-интерфейс для Win NT/2000
Выходной формат : Пользовательский кодировщик
Выбранный битрейт : 1024 kBit/s
Качество : Высокий
Добавление ID3-тега : Нет
Утилита сжатия : C:\Program Files\Exact Audio Copy\FLAC\FLAC.EXE
Дополнительные параметры : -6 -V -T "ARTIST=%artist%" -T "TITLE=%title%" -T "ALBUM=%albumtitle%" -T "DATE=%year%" -T "TRACKNUMBER=%tracknr%" -T "GENRE=%genre%" -T "COMMENT=%comment%" -T "BAND=%albuminterpret%" -T "ALBUMARTIST=%albuminterpret%" -T "COMPOSER=%composer%" %haslyrics%--tag-from-file=LYRICS="%lyricsfile%"%haslyrics% -T "DISCNUMBER=%cdnumber%" -T "TOTALDISCS=%totalcds%" -T "TOTALTRACKS=%numtracks%" %hascover%--picture="%coverfile%"%hascover% %source% -o %dest%
TOC извлечённого CD
Трек | Старт | Длительность | Начальный сектор | Конечный сектор
---------------------------------------------------------------------
1 | 0:00.00 | 5:18.47 | 0 | 23896
2 | 5:18.47 | 3:56.36 | 23897 | 41632
3 | 9:15.08 | 3:54.69 | 41633 | 59251
4 | 13:10.02 | 4:16.56 | 59252 | 78507
5 | 17:26.58 | 4:21.36 | 78508 | 98118
6 | 21:48.19 | 4:50.47 | 98119 | 119915
7 | 26:38.66 | 5:34.22 | 119916 | 144987
8 | 32:13.13 | 4:15.20 | 144988 | 164132
9 | 36:28.33 | 4:20.15 | 164133 | 183647
10 | 40:48.48 | 4:34.32 | 183648 | 204229
11 | 45:23.05 | 3:57.58 | 204230 | 222062
12 | 49:20.63 | 5:07.51 | 222063 | 245138
13 | 54:28.39 | 4:36.38 | 245139 | 265876
Характеристики диапазона извлечения и сообщения об ошибках
Выбранный диапазон
Имя файла C:\Documents and Settings\Admin\Рабочий стол\Chris Standring - Don't Talk, Dance - 2014 - 59'07''\Chris Standring - Don't Talk, Dance.wav
Пиковый уровень 99.8 %
Скорость извлечения 9.1 X
Качество диапазона 100.0 %
CRC теста 3D0145B9
CRC копии 3D0145B9
Копирование... OK
Ошибок не произошло
Конец отчёта
---- CUETools DB Plugin V2.1.3
[CTDB TOCID: 8LgKEDOuk5m_.MvsI1WTT.a6gU0-] disk not present in database, Submit result: 8LgKEDOuk5m_.MvsI1WTT.a6gU0- has been uploaded
==== Контрольная сумма отчёта 90371E047F8751B0D5EA790FE7AB4D6F3E7DE8D545026221FF0736EE21CEE6CE ====
 
Содержание индексной карты (.CUE)
REM GENRE Smooth-Jazz
REM DATE 2014
REM DISCID 9B0DD90D
REM COMMENT "ExactAudioCopy v1.0b3"
PERFORMER "Chris Standring"
TITLE "Don't Talk, Dance"
FILE "Chris Standring - Don't Talk, Dance.flac" WAVE
TRACK 01 AUDIO
TITLE "Sky High"
PERFORMER "Chris Standring"
INDEX 01 00:00:00
TRACK 02 AUDIO
TITLE "Inside Outside"
PERFORMER "Chris Standring"
INDEX 01 05:18:47
TRACK 03 AUDIO
TITLE "Sneakin' Out The Front Door"
PERFORMER "Chris Standring"
INDEX 01 09:15:08
TRACK 04 AUDIO
TITLE "Voices In My Head"
PERFORMER "Chris Standring"
INDEX 01 13:10:02
TRACK 05 AUDIO
TITLE "Soul Symphony"
PERFORMER "Chris Standring"
INDEX 01 17:26:58
TRACK 06 AUDIO
TITLE "Another Fine Mess"
PERFORMER "Chris Standring"
INDEX 01 21:48:19
TRACK 07 AUDIO
TITLE "Crazy Bom Baizy"
PERFORMER "Chris Standring"
INDEX 01 26:38:66
TRACK 08 AUDIO
TITLE "Ride"
PERFORMER "Chris Standring"
INDEX 01 32:13:13
TRACK 09 AUDIO
TITLE "Absolute Madness"
PERFORMER "Chris Standring"
INDEX 01 36:28:33
TRACK 10 AUDIO
TITLE "Yesterday's Heaven"
PERFORMER "Chris Standring"
INDEX 01 40:48:48
TRACK 11 AUDIO
TITLE "Imagine That"
PERFORMER "Chris Standring"
INDEX 01 45:23:05
TRACK 12 AUDIO
TITLE "Scatterfunk"
PERFORMER "Chris Standring"
INDEX 01 49:20:63
TRACK 13 AUDIO
TITLE "Nothing Lasts Forever"
PERFORMER "Chris Standring"
INDEX 01 54:28:39
 
Лог проверки качества
-----------------------
DON'T MODIFY THIS FILE
-----------------------
PERFORMER: auCDtect Task Manager, ver. 1.5.1RC4 build 1.5.1.5
Copyright (c) 2008-2010 y-soft. All rights reserved
http://y-soft.org
ANALYZER: auCDtect: CD records authenticity detector, version 0.8.2
Copyright (c) 2004 Oleg Berngardt. All rights reserved.
Copyright (c) 2004 Alexander Djourik. All rights reserved.
FILE: Chris Standring - Don't Talk, Dance.flac
Size: 392939939 Hash: CEBC5BAC08CA97592A441F85AF0B1CB9 Accuracy: -m0
Conclusion: CDDA 100%
Signature: FE58BAFA8CBCB640AAC4DDBF4CEC451F303244AB
Доп. информация: Chris Standring на трекере
http://rutracker.org/forum/tracker.php?nm=Chris%20Standring%20lossless
Приватный:
Нет (DHT включён)
Размер:
430.76 Мб (451,689,117 байт) » файлов: 11
Участники:
0 раздают, 0 качают (0 участников всего)
Внешние участники:
7 раздают, 2 качают (9 участников всего) [ Обновить ]
No seeders - write personal message to M0p94ok. Нет сидеров - пишите в личку M0p94ok.
07:08
197
Нет комментариев. Ваш будет первым!