Поиск

(Smooth jazz/Funk/Post-Bop/Hip-hop) Dave McMurray - Soul Searching - 2001, APE (image + .cue), lossless

Треклист:
Dave McMurray - Soul Searching
Страна: USA
Жанр: Smooth jazz/Funk/Post-Bop/Hip-hop
Год выпуска: 2001
Формат: APE (image + .cue)
Битрейт аудио: lossless
Продолжительность: 01 ч 07 мин.
Трэклист:
1. Just the Music (McMurray) - 4:27
2. On Detroit Time (McMurray) - 5:30
3. Crusin' to the P.M. (McMurray) - 5:13
4. What Cha Gonna Do About My Loving (Lucas/Mtume) - 5:26
5. Walk in the Night (Bristol/McLeod) - 4:23
6. 7 Day Love (McMurray) - 5:33
7. Nautilus (James) - 5:10
8. Soulful Kiss (McMurray) - 5:16
9. I Go Wild (Boone/McMurray) - 4:15
10. Cleo's Mood (DeWalt/Fuqua/Woods) - 4:14
11. Ghetto Flue Song (McMurray) - 4:49
12. London Nights (McMurray) - 4:38
13. Madrid (McMurray) - 4:49
14. Sonny (McMurray) - 3:45
Mark Isham - Trumpet
Herschel Boone - Vocals
Lawrence Fratangelo - Percussion
Chuck Loeb - Guitar
David McMurray - Flute, Percussion, Keyboards , Sax
Marcus Miller - Bass
Luis Resto - Keyboards, Fender Rhodes
Esther Ridgeway - Vocals
Gloria Ridgeway - Vocals
Gracie Ridgeway - Vocals
Al Turner - Bass
Ron Otis - Drums
 
Отчёт EAC
Exact Audio Copy V0.99 prebeta 4 from 23. January 2008
Отчёт EAC об извлечении, выполненном 30. апреля 2008, 0:33
Dave McMurray / Soul Searching
Дисковод: PIONEER DVD-RW DVR-108 Adapter: 1 ID: 0
Режим чтения : Достоверность
Использование точного потока : Да
Отключение кэша аудио : Да
Использование указателей C2 : Нет
Коррекция смещения при чтении : 48
Способность читать области Lead-in и Lead-out : Нет
Заполнение пропущенных сэмплов тишиной : Да
Удаление блоков с тишиной в начале и конце : Нет
При вычислениях CRC использовались нулевые сэмплы : Да
Интерфейс : Встроенный Win32-интерфейс для Win NT/2000
Выходной формат : Внутренние WAV-операции
Формат сэмплов : 44.100 Гц; 16 бит; стерео
TOC извлечённого CD
Трек | Старт | Длительность | Начальный сектор | Конечный сектор
---------------------------------------------------------------------
1 | 0:00.00 | 4:27.45 | 0 | 20069
2 | 4:27.45 | 5:30.47 | 20070 | 44866
3 | 9:58.17 | 5:13.68 | 44867 | 68409
4 | 15:12.10 | 5:26.60 | 68410 | 92919
5 | 20:38.70 | 4:23.20 | 92920 | 112664
6 | 25:02.15 | 5:33.42 | 112665 | 137681
7 | 30:35.57 | 5:10.28 | 137682 | 160959
8 | 35:46.10 | 5:16.55 | 160960 | 184714
9 | 41:02.65 | 4:15.42 | 184715 | 203881
10 | 45:18.32 | 4:14.48 | 203882 | 222979
11 | 49:33.05 | 4:49.12 | 222980 | 244666
12 | 54:22.17 | 4:38.73 | 244667 | 265589
13 | 59:01.15 | 4:49.45 | 265590 | 287309
14 | 63:50.60 | 3:45.10 | 287310 | 304194
Характеристики диапазона извлечения и сообщения об ошибках
Выбранный диапазон
Имя файла J:\Моя музыка\lossless\Dave McMurray - Soul Searching 2001\Dave McMurray - Soul Searching.wav
Пиковый уровень 100.0 %
Качество диапазона 100.0 %
CRC теста 5E12AE6D
CRC копии 5E12AE6D
Копирование... OK
Ошибок не произошло
Конец отчёта
Доп. информация: Биография:
Дэйв МакМюррэй родился в 1963 году в США. Будучи подростком начал играть на тенор-саксофоне. Получил большой опыт играя в клубах Детройта.
Кумирами Дэйва были John Coltrane и Cannonball Adderley, а так же Willie Metcalf.
Дэйв МакМюррэй набирался опыта играя с блюзовым гитаристом Albert Collins, а так же работая со многими поп, фанк и рэп артистами.
Подписав контракт с лэйблом «Warners», Дэйв МакМюррэй начинает работать над своим дебютом.
Дебютный альбом Дэйва МакМюррэя под названием «The Dave McMurray Show» вышел в 1996 году.
Благодоря работе с разножанровыми артистами, Дэйв МакМюррэй привлек к себе внимание более молодой аудитории.
Затем Дэйв МакМюррэй подписывает контракт с лэйблом «Hip Bop», и приступает к записи очередного альбома.
В 1999 году Дэйв МакМюррэй выпускает второй альбом «Peace Of Mind».
Дэйв МакМюррэй и на этом альбоме не изменил своим традициям заложенным на дебюте. Это по прежнему неординарная смесь джаз и хип хоп музыки.
Спустя три года Дэйв МакМюррэй выпускает третий по счету в его дискографии альбом Soul Searching.
Обратите внимание! Marcus Miller - Bass!!! Chuck Loeb - Guitar!! Первая композиция просто убойная!
Тут можно послушать http://www.amazon.com/Soul-Searching/dp/B000S5CCPS/ref=dm_ap_alb2?ie=UTF8&qid...122&sr=103-1
Приватный:
Нет (DHT включён)
Размер:
432.15 Мб (453,143,731 байт) » файлов: 4
Участники:
0 раздают, 0 качают (0 участников всего)
Внешние участники:
--- [ Обновить ]
12:45
10
Нет комментариев. Ваш будет первым!