Поиск

(smooth jazz) The Sax Pack (Jeff Kashiwa, Kim Waters, Steve Cole) - The Sax Pack - 2008, APE (image + .cue), lossless

(smooth jazz) The Sax Pack (Jeff Kashiwa, Kim Waters, Steve Cole) - The Sax Pack - 2008, APE (image + .cue), lossless
Треклист:
The Sax Pack (Jeff Kashiwa, Kim Waters, Steve Cole) - The Sax Pack
Страна: США
Жанр: smooth jazz
Год выпуска: 2008
Формат: APE (image + .cue)
Битрейт аудио: lossless
Трэклист:
1 Fallin' for You (Waters/Cole/Kashiwa) 3:33
2 The Sax Pack (Waters/Cole/Kashiwa) 3:37
3 All I Really Want (Waters/Cole/Kashiwa) 4:26
4 The World Is a Ghetto (Allen/Brown/Dickers) 5:28
5 Tequila (Rio) 6:17
6 You Are My Starship (Henderson) 4:47
7 Maceo (Waters/Cole/Kashiwa) 5:59
8 Goin' Home (Waters/Cole/Kashiwa) 5:33
 
ЛОГ:
Exact Audio Copy V0.99 prebeta 1 from 25. May 2007
EAC extraction logfile from 25. April 2008, 19:11
Jeff Kashiwa, Kim Waters, Steve Cole / The Sax Pack
Used drive : Optiarc DVD RW AD-7170A Adapter: 1 ID: 1
Read mode : Secure
Utilize accurate stream : Yes
Defeat audio cache : Yes
Make use of C2 pointers : No
Combined read/write offset correction : 48
Overread into Lead-In and Lead-Out : No
Fill up missing offset samples with silence : Yes
Delete leading and trailing silent blocks : No
Used interface : Installed external ASPI interface
Used output format : Internal WAV Routines
Sample format : 44.100 Hz; 16 Bit; Stereo
TOC of the extracted CD
Track | Start | Length | Start sector | End sector
---------------------------------------------------------
1 | 0:00.00 | 3:33.31 | 0 | 16005
2 | 3:33.31 | 3:37.74 | 16006 | 32354
3 | 7:11.30 | 4:26.04 | 32355 | 52308
4 | 11:37.34 | 5:28.34 | 52309 | 76942
5 | 17:05.68 | 6:17.16 | 76943 | 105233
6 | 23:23.09 | 4:47.47 | 105234 | 126805
7 | 28:10.56 | 4:40.24 | 126806 | 147829
8 | 32:51.05 | 5:59.63 | 147830 | 174817
9 | 38:50.68 | 5:33.32 | 174818 | 199824
Range status and errors
Selected range
Filename D:\Images\Torrent\Jeff Kashiwa\2008 Jeff Kashiwa, Kim Waters, Steve Cole - The Sax Pack.wav
Peak level 96.7 %
Range quality 99.9 %
Copy CRC 4CDA8E29
Copy OK
No errors occurred
End of status report
Приватный:
Нет (DHT включён)
Размер:
278.55 Мб (292,078,791 байт) » файлов: 6
Участники:
0 раздают, 0 качают (0 участников всего)
Внешние участники:
2 раздают, 1 качают (3 участников всего) [ Обновить ]
12:45
5
Нет комментариев. Ваш будет первым!