Поиск

(Smooth Jazz) Rick Braun & Richard Elliot ''RnR'' - 2007, WAVPack (image + .cue), lossless

(Smooth Jazz) Rick Braun & Richard Elliot ''RnR'' - 2007, WAVPack (image + .cue), lossless
Треклист:
Rick Braun & Richard Elliot ''RnR''
Жанр: Smooth Jazz
Год выпуска: 2007
Формат: WAVPack (image + .cue)
Битрейт аудио: lossless
Продолжительность: 60'18
Трэклист:
1. RnR
2. Sweet Somethin'
3. Curve Ball
4. The Stranger
5. Da JR Funk
6. Que Paso
7. Better Times
8. Down and Dirty
9. Two Heart Tango
10. Q It Up
11. Sunday Night
12. Sao Paulo
Доп. информация:
 
auCDtest
auCDtect: CD records authenticity detector, version 0.8.2
Copyright © 2004 Oleg Berngardt. All rights reserved.
Copyright © 2004 Alexander Djourik. All rights reserved.
------------------------------------------------------------
Processing file: [01 RnR.wav]
------------------------------------------------------------
This track looks like CDDA with probability 94%
------------------------------------------------------------
Processing file: [02 Sweet Somethin'.wav]
------------------------------------------------------------
This track looks like CDDA with probability 100%
------------------------------------------------------------
Processing file: [03 Curve Ball.wav]
------------------------------------------------------------
This track looks like CDDA with probability 100%
------------------------------------------------------------
Processing file: [04 The Stranger.wav]
------------------------------------------------------------
This track looks like CDDA with probability 100%
------------------------------------------------------------
Processing file: [05 Da JR Funk.wav]
------------------------------------------------------------
This track looks like CDDA with probability 100%
------------------------------------------------------------
Processing file: [06 Que Paso.wav]
------------------------------------------------------------
This track looks like CDDA with probability 100%
------------------------------------------------------------
Processing file: [07 Better Times.wav]
------------------------------------------------------------
This track looks like CDDA with probability 100%
------------------------------------------------------------
Processing file: [08 Down And Dirty.wav]
------------------------------------------------------------
This track looks like CDDA with probability 99%
------------------------------------------------------------
Processing file: [09 Two Heart Tango.wav]
------------------------------------------------------------
This track looks like CDDA with probability 85%
------------------------------------------------------------
Processing file: [10 Q It Up.wav]
------------------------------------------------------------
This track looks like CDDA with probability 100%
------------------------------------------------------------
Processing file: [11 Sunday Night.wav]
------------------------------------------------------------
This track looks like CDDA with probability 100%
------------------------------------------------------------
Processing file: [12 Sao Paulo.wav]
------------------------------------------------------------
This track looks like CDDA with probability 100%
 
CUE-file
REM GENRE Smooth Jazz
REM DATE 2007
PERFORMER "Rick Braun & Richard Elliot"
TITLE "RnR"
FILE "Rick Braun & Richard Elliot '07.wv" WAVE
TRACK 01 AUDIO
TITLE "RnR"
REM REPLAYGAIN_TRACK_GAIN -8.10 dB
REM REPLAYGAIN_TRACK_PEAK 0.869965
INDEX 01 00:00:00
TRACK 02 AUDIO
TITLE "Sweet Somethin'"
REM REPLAYGAIN_TRACK_GAIN -8.06 dB
REM REPLAYGAIN_TRACK_PEAK 0.869965
INDEX 01 04:18:32
TRACK 03 AUDIO
TITLE "Curve Ball"
REM REPLAYGAIN_TRACK_GAIN -8.34 dB
REM REPLAYGAIN_TRACK_PEAK 0.869965
INDEX 01 08:57:48
TRACK 04 AUDIO
TITLE "The Stranger"
REM REPLAYGAIN_TRACK_GAIN -7.18 dB
REM REPLAYGAIN_TRACK_PEAK 0.869965
INDEX 01 13:56:68
TRACK 05 AUDIO
TITLE "Da JR Funk"
REM REPLAYGAIN_TRACK_GAIN -8.17 dB
REM REPLAYGAIN_TRACK_PEAK 0.869965
INDEX 01 19:49:73
TRACK 06 AUDIO
TITLE "Que Paso"
REM REPLAYGAIN_TRACK_GAIN -8.56 dB
REM REPLAYGAIN_TRACK_PEAK 0.869965
INDEX 01 24:28:25
TRACK 07 AUDIO
TITLE "Better Times"
REM REPLAYGAIN_TRACK_GAIN -8.92 dB
REM REPLAYGAIN_TRACK_PEAK 0.869965
INDEX 01 29:35:20
TRACK 08 AUDIO
TITLE "Down And Dirty"
REM REPLAYGAIN_TRACK_GAIN -7.92 dB
REM REPLAYGAIN_TRACK_PEAK 0.869965
INDEX 01 34:57:57
TRACK 09 AUDIO
TITLE "Two Heart Tango"
REM REPLAYGAIN_TRACK_GAIN -7.50 dB
REM REPLAYGAIN_TRACK_PEAK 0.869965
INDEX 01 40:49:14
TRACK 10 AUDIO
TITLE "Q It Up"
REM REPLAYGAIN_TRACK_GAIN -8.68 dB
REM REPLAYGAIN_TRACK_PEAK 0.869965
INDEX 01 45:22:49
TRACK 11 AUDIO
TITLE "Sunday Night"
REM REPLAYGAIN_TRACK_GAIN -7.44 dB
REM REPLAYGAIN_TRACK_PEAK 0.869965
INDEX 01 50:20:09
TRACK 12 AUDIO
TITLE "Sao Paulo"
REM REPLAYGAIN_TRACK_GAIN -6.66 dB
REM REPLAYGAIN_TRACK_PEAK 0.869965
INDEX 01 55:52:04
Скачивание доступно после регистрации!!
Приватный:
Нет (DHT включён)
Размер:
428.70 Мб (449,527,924 байт) » файлов: 14
Участники:
0 раздают, 0 качают (0 участников всего)
Внешние участники:
--- [ Обновить ]
11:06
6
Нет комментариев. Ваш будет первым!