Поиск

(Smooth Jazz) Najee ''Rising Sun'' - 2007, WAVPack (image + .cue), lossless

Треклист:
Najee ''Rising Sun''
Жанр: Smooth Jazz
Год выпуска: 2007
Формат: WAVPack (image + .cue)
Битрейт аудио: lossless
Продолжительность: 47'51
Трэклист:
1. Clarity
2. Brazilian Affair
3. Child At Heart
4. Can't Wait Another Minute
5. Come What May
6. Our Of a Dream
7. Moody's Mood For Love
8. Still In Love
9. Romance the Nite
10. Smooth Sailing
11. Rising Sun
 
TAU-log
auCDtect: CD records authenticity detector, version 0.8.2
Copyright (c) 2004 Oleg Berngardt. All rights reserved.
Copyright (c) 2004 Alexander Djourik. All rights reserved.
------------------------------------------------------------
Processing file: [Najee '07.wav]
------------------------------------------------------------
This track looks like CDDA with probability 99%
 
CUE-file
REM GENRE Smooth Jazz
REM DATE 2007
PERFORMER "Najee"
TITLE "Rising Sun"
FILE "Najee '07.wv" WAVE
TRACK 01 AUDIO
TITLE "Clarity"
REM REPLAYGAIN_TRACK_GAIN -7.47 dB
REM REPLAYGAIN_TRACK_PEAK 0.880005
INDEX 01 00:00:00
TRACK 02 AUDIO
TITLE "Brazilian Affair"
REM REPLAYGAIN_TRACK_GAIN -6.76 dB
REM REPLAYGAIN_TRACK_PEAK 0.880005
INDEX 01 04:23:10
TRACK 03 AUDIO
TITLE "Child At Heart"
REM REPLAYGAIN_TRACK_GAIN -5.37 dB
REM REPLAYGAIN_TRACK_PEAK 0.880005
INDEX 01 08:37:42
TRACK 04 AUDIO
TITLE "Can't Wait Another Minute"
REM REPLAYGAIN_TRACK_GAIN -9.27 dB
REM REPLAYGAIN_TRACK_PEAK 0.880005
INDEX 01 12:52:05
TRACK 05 AUDIO
TITLE "Come What May"
REM REPLAYGAIN_TRACK_GAIN -6.97 dB
REM REPLAYGAIN_TRACK_PEAK 0.880005
INDEX 01 17:03:74
TRACK 06 AUDIO
TITLE "Out Of A Dream"
REM REPLAYGAIN_TRACK_GAIN -8.17 dB
REM REPLAYGAIN_TRACK_PEAK 0.880005
INDEX 01 21:53:28
TRACK 07 AUDIO
TITLE "Moody's Mood For Love"
REM REPLAYGAIN_TRACK_GAIN -5.30 dB
REM REPLAYGAIN_TRACK_PEAK 0.880005
INDEX 01 26:48:19
TRACK 08 AUDIO
TITLE "Still In Love"
REM REPLAYGAIN_TRACK_GAIN -8.59 dB
REM REPLAYGAIN_TRACK_PEAK 0.880005
INDEX 01 31:41:56
TRACK 09 AUDIO
TITLE "Romance The Night"
REM REPLAYGAIN_TRACK_GAIN -7.44 dB
REM REPLAYGAIN_TRACK_PEAK 0.880005
INDEX 01 35:56:32
TRACK 10 AUDIO
TITLE "Smooth Sailing"
REM REPLAYGAIN_TRACK_GAIN -8.08 dB
REM REPLAYGAIN_TRACK_PEAK 0.880005
INDEX 01 40:03:05
TRACK 11 AUDIO
TITLE "Rising Sun"
REM REPLAYGAIN_TRACK_GAIN -6.84 dB
REM REPLAYGAIN_TRACK_PEAK 0.880005
INDEX 01 43:37:38
Скачивание доступно после регистрации!!
Приватный:
Нет (DHT включён)
Размер:
338.52 Мб (354,963,114 байт) » файлов: 15
Участники:
0 раздают, 0 качают (0 участников всего)
Внешние участники:
--- [ Обновить ]
11:06
4
Нет комментариев. Ваш будет первым!