Поиск

(Smooth Jazz) Peter White - Reveillez-Vous - 1990, FLAC (tracks), lossless

(Smooth Jazz) Peter White - Reveillez-Vous - 1990, FLAC (tracks), lossless
Треклист:
Peter White - Reveillez-Vous
Страна: GB
Жанр: Smooth Jazz
Год выпуска: 1990
Формат: FLAC (tracks)
Битрейт аудио: lossless
Продолжительность: 40:52
Трэклист:
1. Reveillez-Vous 3:38
2. Moonlight Montreal 3:52
3. Play Your Guitar For Me 4:13
4. Romance Dance 5:49
5. Everyday 1:53
6. Festival 4:17
7. Crazy Feeling 4:09
8. Song For Robin 4:31
9. Danny Bianco 4:18
10. If Only For You 4:25
Доп. информация: Первый диск известного гитариста. Весьма приятный диск.
ссылка на Амазон, там есть сэмплы и доп.информация
http://www.amazon.com/Reveillez-Vous-Peter-White/dp/B0000012H9/ref=sr_1_7?ie=UTF8...94222&sr=1-7
 
EAC лог
Exact Audio Copy V0.99 prebeta 4 from 23. January 2008
EAC extraction logfile from 9. February 2008, 13:59
Peter White / Reveillez-Vous
Used drive : MATSHITACD-RW CW-8124 Adapter: 0 ID: 0
Read mode : Secure
Utilize accurate stream : Yes
Defeat audio cache : No
Make use of C2 pointers : No
Read offset correction : 102
Overread into Lead-In and Lead-Out : No
Fill up missing offset samples with silence : Yes
Delete leading and trailing silent blocks : No
Null samples used in CRC calculations : Yes
Used interface : Installed external ASPI interface
Gap handling : Not detected, thus appended to previous track
Used output format : User Defined Encoder
Selected bitrate : 1024 kBit/s
Quality : High
Add ID3 tag : No
Command line compressor : C:\Program Files\Exact Audio Copy\FLAC\FLAC.EXE
Additional command line options : -6 -V -T "ARTIST=%a" -T "TITLE=%t" -T "ALBUM=%g" -T "DATE=%y" -T "TRACKNUMBER=%n" -T "GENRE=%m" -T "COMMENT=%e" %s -o %d
TOC of the extracted CD
Track | Start | Length | Start sector | End sector
---------------------------------------------------------
1 | 0:00.00 | 3:36.32 | 0 | 16231
2 | 3:36.32 | 3:50.18 | 16232 | 33499
3 | 7:26.50 | 4:11.45 | 33500 | 52369
4 | 11:38.20 | 5:48.55 | 52370 | 78524
5 | 17:27.00 | 1:51.50 | 78525 | 86899
6 | 19:18.50 | 4:15.62 | 86900 | 106086
7 | 23:34.37 | 4:07.00 | 106087 | 124611
8 | 27:41.37 | 4:29.13 | 124612 | 144799
9 | 32:10.50 | 4:16.25 | 144800 | 164024
10 | 36:27.00 | 4:25.20 | 164025 | 183919
Track 1
Filename M:\media\Audio\Jazz\Peter White\Peter White - Reveillez-Vous\01 Reveillez-Vous (Wake Up).wav
Peak level 100.0 %
Track quality 100.0 %
Copy CRC FDA7CE58
Track not present in AccurateRip database
Copy OK
Track 2
Filename M:\media\Audio\Jazz\Peter White\Peter White - Reveillez-Vous\02 Moonlight Montreal.wav
Peak level 88.3 %
Track quality 100.0 %
Copy CRC 65ED020F
Track not present in AccurateRip database
Copy OK
Track 3
Filename M:\media\Audio\Jazz\Peter White\Peter White - Reveillez-Vous\03 Play Your Guitar For Me.wav
Peak level 84.2 %
Track quality 100.0 %
Copy CRC 6FDE96B6
Track not present in AccurateRip database
Copy OK
Track 4
Filename M:\media\Audio\Jazz\Peter White\Peter White - Reveillez-Vous\04 Romance Dance.wav
Peak level 97.2 %
Track quality 100.0 %
Copy CRC 40C0EDD5
Track not present in AccurateRip database
Copy OK
Track 5
Filename M:\media\Audio\Jazz\Peter White\Peter White - Reveillez-Vous\05 Everyday.wav
Peak level 66.6 %
Track quality 100.0 %
Copy CRC A58CC2E8
Track not present in AccurateRip database
Copy OK
Track 6
Filename M:\media\Audio\Jazz\Peter White\Peter White - Reveillez-Vous\06 Festival.wav
Peak level 95.0 %
Track quality 100.0 %
Copy CRC BC166AAB
Track not present in AccurateRip database
Copy OK
Track 7
Filename M:\media\Audio\Jazz\Peter White\Peter White - Reveillez-Vous\07 Crazy Feeling.wav
Peak level 100.0 %
Track quality 100.0 %
Copy CRC 2CD70B0D
Track not present in AccurateRip database
Copy OK
Track 8
Filename M:\media\Audio\Jazz\Peter White\Peter White - Reveillez-Vous\08 Song For Robin.wav
Peak level 100.0 %
Track quality 100.0 %
Copy CRC C7F9DF40
Track not present in AccurateRip database
Copy OK
Track 9
Filename M:\media\Audio\Jazz\Peter White\Peter White - Reveillez-Vous\09 Danny Bianco.wav
Peak level 94.6 %
Track quality 99.9 %
Copy CRC 2DB98628
Track not present in AccurateRip database
Copy OK
Track 10
Filename M:\media\Audio\Jazz\Peter White\Peter White - Reveillez-Vous\10 If Only For You.wav
Peak level 73.9 %
Track quality 100.0 %
Copy CRC B0BC793A
Track not present in AccurateRip database
Copy OK
None of the tracks are present in the AccurateRip database
No errors occurred
End of status report
 
Cue Sheet - Multiple Wav Files With Gaps... (Noncompliant)
REM GENRE "Smooth Jazz"
REM DATE 1990
REM DISCID 7909940A
REM COMMENT "ExactAudioCopy v0.99pb4"
PERFORMER "Peter White"
TITLE "Reveillez-Vous"
FILE "Reveillez-Vous (Wake Up).wav" WAVE
TRACK 01 AUDIO
TITLE "Reveillez-Vous (Wake Up)"
PERFORMER "Peter White"
INDEX 01 00:00:00
TRACK 02 AUDIO
TITLE "Moonlight Montreal"
PERFORMER "Peter White"
INDEX 00 03:35:00
FILE "Moonlight Montreal.wav" WAVE
INDEX 01 00:00:00
TRACK 03 AUDIO
TITLE "Play Your Guitar For Me"
PERFORMER "Peter White"
INDEX 00 03:48:18
FILE "Play Your Guitar For Me.wav" WAVE
INDEX 01 00:00:00
TRACK 04 AUDIO
TITLE "Romance Dance"
PERFORMER "Peter White"
INDEX 00 04:10:40
FILE "Romance Dance.wav" WAVE
INDEX 01 00:00:00
TRACK 05 AUDIO
TITLE "Everyday"
PERFORMER "Peter White"
INDEX 00 05:46:47
FILE "Everyday.wav" WAVE
INDEX 01 00:00:00
TRACK 06 AUDIO
TITLE "Festival"
PERFORMER "Peter White"
INDEX 00 01:49:35
FILE "Festival.wav" WAVE
INDEX 01 00:00:00
TRACK 07 AUDIO
TITLE "Crazy Feeling"
PERFORMER "Peter White"
INDEX 00 04:14:30
FILE "Crazy Feeling.wav" WAVE
INDEX 01 00:00:00
TRACK 08 AUDIO
TITLE "Song For Robin"
PERFORMER "Peter White"
INDEX 00 04:05:10
FILE "Song For Robin.wav" WAVE
INDEX 01 00:00:00
TRACK 09 AUDIO
TITLE "Danny Bianco"
PERFORMER "Peter White"
INDEX 00 04:27:20
FILE "Danny Bianco.wav" WAVE
INDEX 01 00:00:00
TRACK 10 AUDIO
TITLE "If Only For You"
PERFORMER "Peter White"
INDEX 00 04:14:37
FILE "If Only For You.wav" WAVE
INDEX 01 00:00:00
 
Cue Sheet - Multiple Wav Files With Leftout Gaps
REM GENRE "Smooth Jazz"
REM DATE 1990
REM DISCID 7909940A
REM COMMENT "ExactAudioCopy v0.99pb4"
PERFORMER "Peter White"
TITLE "Reveillez-Vous"
FILE "Reveillez-Vous (Wake Up).wav" WAVE
TRACK 01 AUDIO
TITLE "Reveillez-Vous (Wake Up)"
PERFORMER "Peter White"
INDEX 01 00:00:00
FILE "Moonlight Montreal.wav" WAVE
TRACK 02 AUDIO
TITLE "Moonlight Montreal"
PERFORMER "Peter White"
PREGAP 00:01:32
INDEX 01 00:00:00
FILE "Play Your Guitar For Me.wav" WAVE
TRACK 03 AUDIO
TITLE "Play Your Guitar For Me"
PERFORMER "Peter White"
PREGAP 00:02:00
INDEX 01 00:00:00
FILE "Romance Dance.wav" WAVE
TRACK 04 AUDIO
TITLE "Romance Dance"
PERFORMER "Peter White"
PREGAP 00:01:05
INDEX 01 00:00:00
FILE "Everyday.wav" WAVE
TRACK 05 AUDIO
TITLE "Everyday"
PERFORMER "Peter White"
PREGAP 00:02:08
INDEX 01 00:00:00
FILE "Festival.wav" WAVE
TRACK 06 AUDIO
TITLE "Festival"
PERFORMER "Peter White"
PREGAP 00:02:15
INDEX 01 00:00:00
FILE "Crazy Feeling.wav" WAVE
TRACK 07 AUDIO
TITLE "Crazy Feeling"
PERFORMER "Peter White"
PREGAP 00:01:32
INDEX 01 00:00:00
FILE "Song For Robin.wav" WAVE
TRACK 08 AUDIO
TITLE "Song For Robin"
PERFORMER "Peter White"
PREGAP 00:01:65
INDEX 01 00:00:00
FILE "Danny Bianco.wav" WAVE
TRACK 09 AUDIO
TITLE "Danny Bianco"
PERFORMER "Peter White"
PREGAP 00:01:68
INDEX 01 00:00:00
FILE "If Only For You.wav" WAVE
TRACK 10 AUDIO
TITLE "If Only For You"
PERFORMER "Peter White"
PREGAP 00:01:63
INDEX 01 00:00:00
Приватный:
Нет (DHT включён)
Размер:
243.84 Мб (255,683,811 байт) » файлов: 11
Участники:
0 раздают, 0 качают (0 участников всего)
Внешние участники:
--- [ Обновить ]
12:08
9
Нет комментариев. Ваш будет первым!