Поиск

(Smooth Jazz) Joyce Cooling - Revolving Door - 2006, APE (image + .cue), lossless

Треклист:
Joyce Cooling - Revolving Door
Страна: USA
Жанр: Smooth Jazz
Год выпуска: 2006
Формат: APE (image + .cue)
Битрейт аудио: lossless
Продолжительность: 46:06
Трэклист:
1. Mildred's Attraction 5:45
2. Cool Of The Night 5:15
3. Revolving Door 5:47
4. At The Modern 6:18
5. I'll Always Love You 3:57
6. Come And Get It 5:44
7. Little Sister 5:04
8. In Case Of Rain 1:39
9. Jesse's Bench 4:27
10. One Again 2:00
 
Files
Covers.ncd
Joyce Cooling - Revolving Door(ape).cue
Joyce Cooling - Revolving Door.ape
Joyce Cooling - Revolving Door.cue
Joyce Cooling - Revolving Door.log
tau frequency.jpg
tau spectrum.jpg
tau.jpg
 
EAC Log
Exact Audio Copy V0.99 prebeta 4 from 23. January 2008
Отчёт EAC об извлечении, выполненном 6. февраля 2008, 19:00
Joyce Cooling / Revolving Door
Дисковод: _NEC DVD_RW ND-3550A Adapter: 1 ID: 0
Режим чтения : Достоверность
Использование точного потока : Да
Отключение кэша аудио : Нет
Использование указателей C2 : Да
Коррекция смещения при чтении : 48
Способность читать области Lead-in и Lead-out : Нет
Заполнение пропущенных сэмплов тишиной : Да
Удаление блоков с тишиной в начале и конце : Нет
При вычислениях CRC использовались нулевые сэмплы : Нет
Интерфейс : Встроенный Win32-интерфейс для Win NT/2000
Выходной формат : Внутренние WAV-операции
Формат сэмплов : 44.100 Гц; 16 бит; стерео
TOC извлечённого CD
Трек | Старт | Длительность | Начальный сектор | Конечный сектор
---------------------------------------------------------------------
1 | 0:00.00 | 5:45.04 | 0 | 25878
2 | 5:45.04 | 5:15.28 | 25879 | 49531
3 | 11:00.32 | 5:48.28 | 49532 | 75659
4 | 16:48.60 | 6:19.14 | 75660 | 104098
5 | 23:07.74 | 3:58.20 | 104099 | 121968
6 | 27:06.19 | 5:44.30 | 121969 | 147798
7 | 32:50.49 | 5:06.21 | 147799 | 170769
8 | 37:56.70 | 1:41.12 | 170770 | 178356
9 | 39:38.07 | 4:27.57 | 178357 | 198438
10 | 44:05.64 | 2:00.37 | 198439 | 207475
Характеристики диапазона извлечения и сообщения об ошибках
Выбранный диапазон
Имя файла F:\Images\Joyce Cooling\Joyce Cooling - Revolving Door.wav
Пиковый уровень 100.0 %
Качество диапазона 100.0 %
CRC копии ED291AB4
Копирование... OK
Ошибок не произошло
AccurateRip: сводка
Трек 1 точность не определена (достоверность 2) [29819889], AccurateRip вернул [5809E3E9]
Трек 2 точность не определена (достоверность 3) [AED09EE4], AccurateRip вернул [8B21A634]
Трек 3 точность не определена (достоверность 2) [DCEA1746], AccurateRip вернул [25526B4E]
Трек 4 точность не определена (достоверность 2) [4A8212FB], AccurateRip вернул [F4BBD673]
Трек 5 точность не определена (достоверность 2) [7D5C58E7], AccurateRip вернул [0BAEE16F]
Трек 6 точность не определена (достоверность 3) [4238603F], AccurateRip вернул [9C5CDB9F]
Трек 7 точность не определена (достоверность 2) [ADCBAD7C], AccurateRip вернул [6576A834]
Трек 8 точность не определена (достоверность 2) [382FCB4D], AccurateRip вернул [E707BA75]
Трек 9 точность не определена (достоверность 2) [032DED4D], AccurateRip вернул [37AAB985]
Трек 10 точность не определена (достоверность 2) [017566B4], AccurateRip вернул [6FDE12BC]
Ни один трек не прошёл проверки на точность
В вашей базе может быть иной вариант штамповки диска
Конец отчёта
 
tau


Приватный:
Нет (DHT включён)
Размер:
264.58 Мб (277,427,450 байт) » файлов: 8
Участники:
0 раздают, 0 качают (0 участников всего)
Внешние участники:
--- [ Обновить ]
12:07
9
Нет комментариев. Ваш будет первым!