Поиск

(Smooth Jazz) Jeff Lorber - Philly Style - 2003, APE (image + .cue), lossless

Треклист:
Jeff Lorber - Philly Style
Страна: USA
Жанр: Smooth Jazz
Год выпуска: 2003
Формат: APE (image + .cue)
Битрейт аудио: lossless
Трэклист:
01] Under Wraps
[02] Gigabyte
[03] Regardless Of
[04] Philly Style
[05] Soul Food
[06] Laissez Faire
[07] Step On It
[08] Uncle Darrow's
[09] When She Smiles
[10] Serpentine Lane
Доп. информация:
Jeff Lorber: Piano, Rhodes, Wurlitzer, and keyboards, additional horn arrangement
Steven Dubin: Additional keyboards, drum programming
Alex Al: bass guitar
Bill Reichenbach: trombone
Dan Higgins: tenor saxophone
Gary Meek: tenor saxophone, soprano saxophones
Jerry Hey: horn arrangement, flugelhorn
John Roberts: drums
Lenny Castro: percussion
Naila: vocals
Nelson Jackson: additional keyboards
Richard Elliot: tenor saxophone
Robbie Nevil: additional keyboards
Ron King: flugelhorn
Tony Maiden: guitar
Вся доп. информация и прослушивание на сайте исполнителя http://www.lorber.com/discography/18_philly_style.html
 
Отчёт EAC
Exact Audio Copy V0.99 prebeta 4 from 23. January 2008
Отчёт EAC об извлечении, выполненном 24. апреля 2008, 1:45
Jeff Lorber / Philly Style
Дисковод: PIONEER DVD-RW DVR-108 Adapter: 1 ID: 0
Режим чтения : Достоверность
Использование точного потока : Да
Отключение кэша аудио : Да
Использование указателей C2 : Нет
Коррекция смещения при чтении : 48
Способность читать области Lead-in и Lead-out : Нет
Заполнение пропущенных сэмплов тишиной : Да
Удаление блоков с тишиной в начале и конце : Нет
При вычислениях CRC использовались нулевые сэмплы : Да
Интерфейс : Встроенный Win32-интерфейс для Win NT/2000
Выходной формат : Внутренние WAV-операции
Формат сэмплов : 44.100 Гц; 16 бит; стерео
TOC извлечённого CD
Трек | Старт | Длительность | Начальный сектор | Конечный сектор
---------------------------------------------------------------------
1 | 0:00.00 | 4:54.35 | 0 | 22084
2 | 4:54.35 | 3:53.50 | 22085 | 39609
3 | 8:48.10 | 4:25.42 | 39610 | 59526
4 | 13:13.52 | 4:05.58 | 59527 | 77959
5 | 17:19.35 | 4:09.65 | 77960 | 96699
6 | 21:29.25 | 3:52.62 | 96700 | 114161
7 | 25:22.12 | 4:06.20 | 114162 | 132631
8 | 29:28.32 | 3:52.43 | 132632 | 150074
9 | 33:21.00 | 4:47.10 | 150075 | 171609
10 | 38:08.10 | 4:46.50 | 171610 | 193109
Характеристики диапазона извлечения и сообщения об ошибках
Выбранный диапазон
Имя файла J:\Моя музыка\lossless\Jeff Lorber - Philly Style 2003\Jeff Lorber - Philly Style.wav
Пиковый уровень 99.7 %
Качество диапазона 99.9 %
CRC теста 033BD36A
CRC копии 033BD36A
Копирование... OK
Ошибок не произошло
Конец отчёта
Еще альбомы:
1993 http://rutracker.org/forum/viewtopic.php?t=602047
2001 http://rutracker.org/forum/viewtopic.php?p=8768650#8768650
2004 http://rutracker.org/forum/viewtopic.php?t=323666
2007 http://rutracker.org/forum/viewtopic.php?t=354360
2008 http://rutracker.org/forum/viewtopic.php?t=1142331
Приватный:
Нет (DHT включён)
Размер:
253.98 Мб (266,319,093 байт) » файлов: 4
Участники:
0 раздают, 0 качают (0 участников всего)
Внешние участники:
2 раздают, 1 качают (3 участников всего) [ Обновить ]
12:42
7
Нет комментариев. Ваш будет первым!