Поиск

(Smooth Jazz) Jeff Lorber - Kickin' It - 2001, APE (image + .cue), lossless

Треклист:
Jeff Lorber - Kickin' It
Страна: USA
Жанр: Smooth Jazz
Год выпуска: 2001
Формат: APE (image + .cue)
Битрейт аудио: lossless
Трэклист:
[1] Snakebite
[2] Ain't Nobody
[3] Happy Endings
[4] Chopsticks
[5] Keep That Same Ol' Feelin'
[6] Reflections
[7] The Bijou
[8] Kickin' It
[9] The In Crowd
[10] What It Is
Доп. информация:
Album Producers: Steven Dubin and Jeff Lorber
Jeff plays Yamaha DS6 piano, Fender Rhodes,
other keyboards, synth bass, mute guitar.
Featuring:
Alex Al - Bass
Dave Koz - Soprano, Alto sax on track 3 and 7
Gary Meek - Soprano, Tenor sax
Gerald Albright - Tenor sax on track 1, 5, 8
Jerry Hey - Trumpet, Flugelhorn, Horn arrangements
John "Little John" Roberts - Drums
Lenny Castro - Percussion
Richard Elliot - Tenor sax on track 9
Siedah Garrett - Vocals on track 5
Steve Cole - Tenor sax on track 4
Tony Maiden - Guitar
Wah Wah Watson - Guitar
Сайт исполнителя http://www.lorber.com/
Тут можно послушать http://www.amazon.com/Kickin-Jeff-Lorber/dp/B000059LDA/ref=pd_sim_m_img_4
 
Отчёт EAC
Exact Audio Copy V0.99 prebeta 4 from 23. January 2008
Отчёт EAC об извлечении, выполненном 24. апреля 2008, 2:19
Jeff Lorber / Kickin' It 2001
Дисковод: PIONEER DVD-RW DVR-108 Adapter: 1 ID: 0
Режим чтения : Достоверность
Использование точного потока : Да
Отключение кэша аудио : Да
Использование указателей C2 : Нет
Коррекция смещения при чтении : 48
Способность читать области Lead-in и Lead-out : Нет
Заполнение пропущенных сэмплов тишиной : Да
Удаление блоков с тишиной в начале и конце : Нет
При вычислениях CRC использовались нулевые сэмплы : Да
Интерфейс : Встроенный Win32-интерфейс для Win NT/2000
Выходной формат : Внутренние WAV-операции
Формат сэмплов : 44.100 Гц; 16 бит; стерео
TOC извлечённого CD
Трек | Старт | Длительность | Начальный сектор | Конечный сектор
---------------------------------------------------------------------
1 | 0:00.00 | 4:17.37 | 0 | 19311
2 | 4:17.37 | 3:54.30 | 19312 | 36891
3 | 8:11.67 | 4:25.18 | 36892 | 56784
4 | 12:37.10 | 3:58.05 | 56785 | 74639
5 | 16:35.15 | 4:33.47 | 74640 | 95161
6 | 21:08.62 | 4:40.58 | 95162 | 116219
7 | 25:49.45 | 4:52.52 | 116220 | 138171
8 | 30:42.22 | 4:08.58 | 138172 | 156829
9 | 34:51.05 | 4:05.27 | 156830 | 175231
10 | 38:56.32 | 4:37.28 | 175232 | 196034
Характеристики диапазона извлечения и сообщения об ошибках
Выбранный диапазон
Имя файла J:\Моя музыка\lossless\Jeff Lorber - Kickin' It 2001\Jeff Lorber - Kickin' It 2001.wav
Пиковый уровень 96.5 %
Качество диапазона 100.0 %
CRC теста A4BB9829
CRC копии A4BB9829
Копирование... OK
Ошибок не произошло
Конец отчёта
Еще альбомы:
1993 http://rutracker.org/forum/viewtopic.php?t=602047
2003 http://rutracker.org/forum/viewtopic.php?t=814181
2004 http://rutracker.org/forum/viewtopic.php?t=323666
2007 http://rutracker.org/forum/viewtopic.php?t=354360
2008 http://rutracker.org/forum/viewtopic.php?t=1142331
Приватный:
Нет (DHT включён)
Размер:
272.66 Мб (285,899,859 байт) » файлов: 4
Участники:
0 раздают, 0 качают (0 участников всего)
Внешние участники:
--- [ Обновить ]
12:43
3
Нет комментариев. Ваш будет первым!