Поиск

(Smooth Jazz) Jeff Golub - Grand Central (2007) [FLAC] - 2007, FLAC (tracks)

(Smooth Jazz) Jeff Golub - Grand Central (2007) [FLAC] - 2007, FLAC (tracks)
Треклист:
Jeff Golub - Grand Central (2007) [FLAC]
Страна: USA
Жанр: Smooth Jazz
Год выпуска: 2007
Формат: FLAC (tracks)
Продолжительность: 53:14
Трэклист:
1. Jeff Golub - Hello Betty (3:51)
2. Jeff Golub - Lulu's Back (4:26)
3. Jeff Golub - If You Want Me To Stay (6:02)
4. Jeff Golub - Mojito (4:20)
5. Jeff Golub - Something (4:54)
6. Jeff Golub - Shockwave (5:15)
7. Jeff Golub - Slinky (4:53)
8. Jeff Golub - Grand Central (4:12)
9. Jeff Golub - Ain't No Woman (Like The One I Got) (4:09)
10. Jeff Golub - The Way I Feel Tonight (5:39)
11. Jeff Golub - Stuffin' It (5:33)
Доп. информация:
Artist: Jeff Golub
Album: Grand Central
Genre: Smooth Jazz
Label: Narada Jazz
Source: CD
Release Date: March 6, 2007
Playing Time: 00:53:14
Total Size: 334.89 MB
 
скрытый текст
 
LOG
EAC extraction logfile from 6. March 2007, 11:07 for CD
Jeff Golub / Grand Central
Used drive : TSSTcorpCD/DVDW SH-S182M Adapter: 2 ID: 0
Read mode : Secure with NO C2, accurate stream, disable cache
Read offset correction : 6
Overread into Lead-In and Lead-Out : No
Used output format : C:\EAC\flac-1.1.2-win\bin\flac.exe (User Defined Encoder)
320 kBit/s
Additional command line options : -V -8 -T "artist=%a" -T "title=%t" -T "album=%g" -T "date=%y" -T "tracknumber=%n" -T "genre=%m" %s
Other options :
Fill up missing offset samples with silence : Yes
Delete leading and trailing silent blocks : No
Installed external ASPI interface
Track 1
Filename E:\Jeff Golub - Grand Central (2007) [FLAC]\01 - Hello Betty.wav
Pre-gap length 0:00:02.00
Peak level 96.9 %
Track quality 100.0 %
Test CRC 9CFE30AC
Copy CRC 9CFE30AC
Copy OK
Track 2
Filename E:\Jeff Golub - Grand Central (2007) [FLAC]\02 - Lulu's Back.wav
Peak level 95.7 %
Track quality 99.9 %
Test CRC 0C5B1C65
Copy CRC 0C5B1C65
Copy OK
Track 3
Filename E:\Jeff Golub - Grand Central (2007) [FLAC]\03 - If You Want Me To Stay.wav
Peak level 95.1 %
Track quality 100.0 %
Test CRC DD070679
Copy CRC DD070679
Copy OK
Track 4
Filename E:\Jeff Golub - Grand Central (2007) [FLAC]\04 - Mojito.wav
Pre-gap length 0:00:01.24
Peak level 96.0 %
Track quality 100.0 %
Test CRC CD76FB62
Copy CRC CD76FB62
Copy OK
Track 5
Filename E:\Jeff Golub - Grand Central (2007) [FLAC]\05 - Something.wav
Pre-gap length 0:00:00.97
Peak level 95.2 %
Track quality 100.0 %
Test CRC FC0C646A
Copy CRC FC0C646A
Copy OK
Track 6
Filename E:\Jeff Golub - Grand Central (2007) [FLAC]\06 - Shockwave.wav
Peak level 95.2 %
Track quality 100.0 %
Test CRC 7F0AAF75
Copy CRC 7F0AAF75
Copy OK
Track 7
Filename E:\Jeff Golub - Grand Central (2007) [FLAC]\07 - Slinky.wav
Peak level 97.6 %
Track quality 100.0 %
Test CRC 2B3C4652
Copy CRC 2B3C4652
Copy OK
Track 8
Filename E:\Jeff Golub - Grand Central (2007) [FLAC]\08 - Grand Central.wav
Peak level 96.6 %
Track quality 100.0 %
Test CRC FC876A25
Copy CRC FC876A25
Copy OK
Track 9
Filename E:\Jeff Golub - Grand Central (2007) [FLAC]\09 - Ain't No Woman (Like The One I Got).wav
Peak level 99.8 %
Track quality 99.9 %
Test CRC CE8F0009
Copy CRC CE8F0009
Copy OK
Track 10
Filename E:\Jeff Golub - Grand Central (2007) [FLAC]\10 - The Way I Feel Tonight.wav
Peak level 93.2 %
Track quality 100.0 %
Test CRC D995711A
Copy CRC D995711A
Copy OK
Track 11
Filename E:\Jeff Golub - Grand Central (2007) [FLAC]\11 - Stuffin' It.wav
Peak level 95.3 %
Track quality 100.0 %
Test CRC BB72D32E
Copy CRC BB72D32E
Copy OK
No errors occured
End of status report
 
CUE
REM GENRE Jazz
REM DATE 2007
REM DISCID 7D0C7E0B
REM COMMENT "ExactAudioCopy v0.95b3"
PERFORMER "Jeff Golub"
TITLE "Grand Central"
FILE "01 - Hello Betty.wav" WAVE
TRACK 01 AUDIO
TITLE "Hello Betty"
PERFORMER "Jeff Golub"
INDEX 01 00:00:00
FILE "02 - Lulu's Back.wav" WAVE
TRACK 02 AUDIO
TITLE "Lulu's Back"
PERFORMER "Jeff Golub"
INDEX 01 00:00:00
FILE "03 - If You Want Me To Stay.wav" WAVE
TRACK 03 AUDIO
TITLE "If You Want Me To Stay"
PERFORMER "Jeff Golub"
INDEX 01 00:00:00
TRACK 04 AUDIO
TITLE "Mojito"
PERFORMER "Jeff Golub"
INDEX 00 06:00:71
FILE "04 - Mojito.wav" WAVE
INDEX 01 00:00:00
TRACK 05 AUDIO
TITLE "Something"
PERFORMER "Jeff Golub"
INDEX 00 04:19:18
FILE "05 - Something.wav" WAVE
INDEX 01 00:00:00
FILE "06 - Shockwave.wav" WAVE
TRACK 06 AUDIO
TITLE "Shockwave"
PERFORMER "Jeff Golub"
INDEX 01 00:00:00
FILE "07 - Slinky.wav" WAVE
TRACK 07 AUDIO
TITLE "Slinky"
PERFORMER "Jeff Golub"
INDEX 01 00:00:00
FILE "08 - Grand Central.wav" WAVE
TRACK 08 AUDIO
TITLE "Grand Central"
PERFORMER "Jeff Golub"
INDEX 01 00:00:00
FILE "09 - Ain't No Woman (Like The One I Got).wav" WAVE
TRACK 09 AUDIO
TITLE "Ain't No Woman (Like The One I Got)"
PERFORMER "Jeff Golub"
INDEX 01 00:00:00
FILE "10 - The Way I Feel Tonight.wav" WAVE
TRACK 10 AUDIO
TITLE "The Way I Feel Tonight"
PERFORMER "Jeff Golub"
INDEX 01 00:00:00
FILE "11 - Stuffin' It.wav" WAVE
TRACK 11 AUDIO
TITLE "Stuffin' It"
PERFORMER "Jeff Golub"
INDEX 01 00:00:00
Скачивание доступно после регистрации!!
Приватный:
Нет (DHT включён)
Размер:
338.16 Мб (354,585,802 байт) » файлов: 27
Участники:
0 раздают, 0 качают (0 участников всего)
Внешние участники:
18 раздают, 6 качают (24 участников всего) [ Обновить ]
10:16
5
Нет комментариев. Ваш будет первым!