Поиск

(Jazz) Soul Ballet - City Of Desire [lossless] - 1999, FLAC (image + .cue)

(Jazz) Soul Ballet - City Of Desire [lossless] - 1999, FLAC (image + .cue)
Треклист:
Soul Ballet - City Of Desire [lossless]
Жанр: Jazz
Год выпуска: 1999
Формат: FLAC (image + .cue)
Продолжительность: 1:01:29
Трэклист:
1 City Of Desire [5.41 ]
2 Revelation Of The Heart [5.12 ]
3 You Gotta Be Real [5.56 ]
4 Echoes Of A Dream [6.06 ]
5 Straight Up [5.41 ]
6 The Closer You Get [4.14 ]
7 Thru The Shadows [4.50 ]
8 In The Full Moon Light [4.44 ]
9 Once In A Lifetime [4.45 ]
10 Lift Me Higher [4.40 ]
11 7-th Heaven [4.26 ]
12 Set Yourself Free [5.06 ]
Dial it In (Limited Edition) http://rutracker.org/forum/viewtopic.php?p=1492134
 
скрытый текст
 
LOG
EAC extraction logfile from 31. January 2007, 14:03 for CD
Soul Ballet / City Of Desire
Used drive : ASUS CD-S500/A Adapter: 1 ID: 1
Read mode : Secure with C2, accurate stream, NO disable cache
Combined read/write offset correction : 0
Overread into Lead-In and Lead-Out : No
Used output format : Internal WAV Routines
44.100 Hz; 16 Bit; Stereo
Other options :
Fill up missing offset samples with silence : Yes
Delete leading and trailing silent blocks : No
Native Win32 interface for Win NT & 2000
Range status and errors
Selected range
Filename D:\temp\Soul Ballet - City Of Desire.wav
Suspicious position 0:54:26
Suspicious position 0:54:29 - 0:54:32
Suspicious position 0:54:34 - 0:54:36
Suspicious position 0:54:38 - 0:54:39
Suspicious position 0:54:41 - 0:55:22
Peak level 98.8 %
Range quality 96.7 %
CRC 4A4953EA
Copy finished
There were errors
End of status report
 
CUE
REM GENRE Jazz
REM DATE 1999
REM DISCID A30E690C
REM COMMENT "ExactAudioCopy v0.95b4"
PERFORMER "Soul Ballet"
TITLE "City Of Desire"
FILE "Soul Ballet - City Of Desire.wav" WAVE
TRACK 01 AUDIO
TITLE "City Of Desire"
PERFORMER "Soul Ballet"
INDEX 01 00:00:00
TRACK 02 AUDIO
TITLE "Revelation Of The Heart"
PERFORMER "Soul Ballet"
INDEX 00 05:40:12
INDEX 01 05:41:70
TRACK 03 AUDIO
TITLE "You Gotta Be Real"
PERFORMER "Soul Ballet"
INDEX 00 10:52:40
INDEX 01 10:54:40
TRACK 04 AUDIO
TITLE "Echoes Of A Dream"
PERFORMER "Soul Ballet"
INDEX 00 16:49:49
INDEX 01 16:51:30
TRACK 05 AUDIO
TITLE "Straight Up"
PERFORMER "Soul Ballet"
INDEX 00 22:56:24
INDEX 01 22:58:25
TRACK 06 AUDIO
TITLE "The Closer You Get"
PERFORMER "Soul Ballet"
INDEX 00 28:38:08
INDEX 01 28:39:65
TRACK 07 AUDIO
TITLE "Thru The Shadows"
PERFORMER "Soul Ballet"
INDEX 00 32:53:07
INDEX 01 32:54:63
TRACK 08 AUDIO
TITLE "In The Full Moon Light"
PERFORMER "Soul Ballet"
INDEX 00 37:43:45
INDEX 01 37:45:48
TRACK 09 AUDIO
TITLE "Once In A Lifetime"
PERFORMER "Soul Ballet"
INDEX 00 42:28:19
INDEX 01 42:30:23
TRACK 10 AUDIO
TITLE "Lift Me Higher"
PERFORMER "Soul Ballet"
INDEX 00 47:14:06
INDEX 01 47:15:61
TRACK 11 AUDIO
TITLE "7-th Heaven"
PERFORMER "Soul Ballet"
INDEX 00 51:54:53
INDEX 01 51:56:36
TRACK 12 AUDIO
TITLE "Set Yourself Free"
PERFORMER "Soul Ballet"
INDEX 00 56:21:22
INDEX 01 56:23:03
Приватный:
Нет (DHT включён)
Размер:
371.85 Мб (389,916,768 байт) » файлов: 3
Участники:
0 раздают, 0 качают (0 участников всего)
Внешние участники:
12 раздают, 4 качают (16 участников всего) [ Обновить ]
10:14
28
Нет комментариев. Ваш будет первым!