Поиск

(smooth jazz) George Duke - 'Round Midnight (2004) {Jazz Moods, compilation} - 2004, FLAC (tracks+.cue), lossless

(smooth jazz) George Duke - 'Round Midnight (2004) {Jazz Moods, compilation} - 2004, FLAC (tracks+.cue), lossless
Треклист:
George Duke - 'Round Midnight (2004) {Jazz Moods, compilation}
Жанр: smooth jazz
Дата выпуска: Jun 15, 2004
Производитель диска: Epic/Legacy
Страна исполнителя: USA
Аудио кодек: FLAC
Тип рипа: (tracks + .cue)
Битрейт аудио: lossless
Включает: FLACS, LOG, CUE, TAU
Сканы: Все страницы, вкладыши и диск. 300dpi, png jpg
Продолжительность: 44:13
Источник: Моя коллекция
Ripped by: Musicgate
Трэклист:
o1) Sweet Baby з:48 - Available on The Clarke/Duke Project ©1981
02) Stay Awhile 2:59 - From Rendezvous © 1984
03) Love Reborn 4:26 - Available on Brazilian Love Affair © 1979
04) Just For You 4:27 - Available on Reach For It © 1977
05) Сorinе 6:01 - From Follow The Rainbow © 1979
06) You (Are The Light) 4:15 - From Guardian Of The Light © 1983
07) Summer Breezin' 4:50 - Available on Brazilian Love Affair © 1979
08) Touch And Go 4:35 - Available on The Clarke/Duke Project © 1981
09) I Need You Now 4:43 - Available on Brazilian Love Affair © 1979
io) Thinking Of You 4:10 - From Rendez-vous © 1984
11) Lady 4:21 - Available on The Clarke/Duke Project © 1990
All tracks written by G. Duke except
"Touch And Go" written by S. Clarke, G. Duke, A. Willis
Об альбоме:
samplles
Мои раздачи на треккере - jazz / fusion / prog
 
Folder content
'Round Midnight.log
'Round Midnight_Noncompliant.CUE
'Round Midnight_Single Wav.CUE
01 - Sweet Baby.flac
02 - Stay Awhile.flac
03 - Love Reborn.flac
04 - Just For You.flac
05 - Corine.flac
06 - You (Are the Light).flac
07 - Summer Breezin'.flac
08 - Touch and Go.flac
09 - I Need You Now.flac
10 - Thinking of You.flac
11 - Lady.flac
Artwork
George Duke - 'Round Midnight.m3u
tau.txt
thumb.jpg
Artwork\Back.png
Artwork\Disc.png
Artwork\Front 2.png
Artwork\front.jpg
Artwork\Front.png
Artwork\In 2.png
Artwork\In.png
 
EAC log
EAC extraction logfile from 9. January 2008, 10:50 for CD
George Duke / 'Round Midnight
Used drive : PIONEER DVD-RW DVR-112D Adapter: 0 ID: 0
Read mode : Secure with NO C2, accurate stream, disable cache
Read offset correction : 48
Overread into Lead-In and Lead-Out : No
Used output format : C:\Program Files\FLAC\flac.exe (User Defined Encoder)
320 kBit/s
Additional command line options : -8 -V -T "ARTIST=%a" -T "TITLE=%t" -T "ALBUM=%g" -T "DATE=%y" -T "TRACKNUMBER=%n" -T "GENRE=%m" -T "COMMENT=EAC FLAC -8" %s
Other options :
Fill up missing offset samples with silence : Yes
Delete leading and trailing silent blocks : No
Installed external ASPI interface
Track 1
Filename D:\music\rip\George Duke - 'Round Midnight (2004) [FLAC] {Jazz Moods, compilation}\01 - Sweet Baby.wav
Pre-gap length 0:00:02.00
Peak level 100.0 %
Track quality 100.0 %
Test CRC 7F2C3575
Copy CRC 7F2C3575
Copy OK
Track 2
Filename D:\music\rip\George Duke - 'Round Midnight (2004) [FLAC] {Jazz Moods, compilation}\02 - Stay Awhile.wav
Peak level 83.7 %
Track quality 100.0 %
Test CRC 27D66AAB
Copy CRC 27D66AAB
Copy OK
Track 3
Filename D:\music\rip\George Duke - 'Round Midnight (2004) [FLAC] {Jazz Moods, compilation}\03 - Love Reborn.wav
Peak level 88.8 %
Track quality 100.0 %
Test CRC BF8F6AAE
Copy CRC BF8F6AAE
Copy OK
Track 4
Filename D:\music\rip\George Duke - 'Round Midnight (2004) [FLAC] {Jazz Moods, compilation}\04 - Just For You.wav
Peak level 90.2 %
Track quality 99.9 %
Test CRC 405931F1
Copy CRC 405931F1
Copy OK
Track 5
Filename D:\music\rip\George Duke - 'Round Midnight (2004) [FLAC] {Jazz Moods, compilation}\05 - Corine.wav
Peak level 79.4 %
Track quality 100.0 %
Test CRC 3A792897
Copy CRC 3A792897
Copy OK
Track 6
Filename D:\music\rip\George Duke - 'Round Midnight (2004) [FLAC] {Jazz Moods, compilation}\06 - You (Are the Light).wav
Peak level 82.2 %
Track quality 99.9 %
Test CRC 9C03B40E
Copy CRC 9C03B40E
Copy OK
Track 7
Filename D:\music\rip\George Duke - 'Round Midnight (2004) [FLAC] {Jazz Moods, compilation}\07 - Summer Breezin'.wav
Peak level 100.0 %
Track quality 100.0 %
Test CRC 0D5C7750
Copy CRC 0D5C7750
Copy OK
Track 8
Filename D:\music\rip\George Duke - 'Round Midnight (2004) [FLAC] {Jazz Moods, compilation}\08 - Touch and Go.wav
Peak level 100.0 %
Track quality 100.0 %
Test CRC F7319EFF
Copy CRC F7319EFF
Copy OK
Track 9
Filename D:\music\rip\George Duke - 'Round Midnight (2004) [FLAC] {Jazz Moods, compilation}\09 - I Need You Now.wav
Peak level 100.0 %
Track quality 100.0 %
Test CRC 5FD249BD
Copy CRC 5FD249BD
Copy OK
Track 10
Filename D:\music\rip\George Duke - 'Round Midnight (2004) [FLAC] {Jazz Moods, compilation}\10 - Thinking of You.wav
Peak level 70.3 %
Track quality 100.0 %
Test CRC 28342D07
Copy CRC 28342D07
Copy OK
Track 11
Filename D:\music\rip\George Duke - 'Round Midnight (2004) [FLAC] {Jazz Moods, compilation}\11 - Lady.wav
Peak level 78.5 %
Track quality 100.0 %
Test CRC 205550F7
Copy CRC 205550F7
Copy OK
No errors occured
End of status report
 
TAU log
1326699764 40188668 01 - Sweet Baby.wav
1629585969 31528604 02 - Stay Awhile.wav
181392301 46988300 03 - Love Reborn.wav
1035110178 47087084 04 - Just For You.wav
3943404302 63638108 05 - Corine.wav
4114269784 45040844 06 - You (Are the Light).wav
3922637786 51127820 07 - Summer Breezin'.wav
3543973477 48427724 08 - Touch and Go.wav
3166536614 49944764 09 - I Need You Now.wav
186330998 44064764 10 - Thinking of You.wav
1957886787 46115708 11 - Lady.wav
auCDtect: CD records authenticity detector, version 0.8.2
Copyright (c) 2004 Oleg Berngardt. All rights reserved.
Copyright (c) 2004 Alexander Djourik. All rights reserved.
------------------------------------------------------------
Processing file: [01 - Sweet Baby.wav]
------------------------------------------------------------
This track looks like CDDA with probability 100%
------------------------------------------------------------
Processing file: [02 - Stay Awhile.wav]
------------------------------------------------------------
This track looks like CDDA with probability 100%
------------------------------------------------------------
Processing file: [03 - Love Reborn.wav]
------------------------------------------------------------
This track looks like CDDA with probability 100%
------------------------------------------------------------
Processing file: [04 - Just For You.wav]
------------------------------------------------------------
This track looks like CDDA with probability 99%
------------------------------------------------------------
Processing file: [05 - Corine.wav]
------------------------------------------------------------
This track looks like CDDA with probability 100%
------------------------------------------------------------
Processing file: [06 - You (Are the Light).wav]
------------------------------------------------------------
This track looks like CDDA with probability 100%
------------------------------------------------------------
Processing file: [07 - Summer Breezin'.wav]
------------------------------------------------------------
This track looks like CDDA with probability 100%
------------------------------------------------------------
Processing file: [08 - Touch and Go.wav]
------------------------------------------------------------
This track looks like CDDA with probability 100%
------------------------------------------------------------
Processing file: [09 - I Need You Now.wav]
------------------------------------------------------------
This track looks like CDDA with probability 100%
------------------------------------------------------------
Processing file: [10 - Thinking of You.wav]
------------------------------------------------------------
This track looks like CDDA with probability 94%
------------------------------------------------------------
Processing file: [11 - Lady.wav]
------------------------------------------------------------
This track looks like CDDA with probability 100%
------------------------------------------------------------
Final Conclusion:
------------------------------------------------------------
These tracks looks like CDDA with probability 100%
Я не сидирую все свои раздачи подолгу, только новые (до 3х первых сидов)
Если через месяц вы нашли тут этот альбом без сидов - шлите ПМ, я вернусь
Приватный:
Нет (DHT включён)
Размер:
324.89 Мб (340,674,118 байт) » файлов: 24
Участники:
0 раздают, 0 качают (0 участников всего)
Внешние участники:
1 раздают, 0 качают (1 участников всего) [ Обновить ]
13:12
13
Нет комментариев. Ваш будет первым!