Поиск

(Jazz) Ramsey Lewis Trio - Time Flies (2004) - 2004, APE (image+.cue), lossless

Треклист:
Ramsey Lewis Trio - Time Flies (2004)
Жанр: Jazz
Год выпуска диска: 2004
Производитель диска: USA
Аудио кодек: APE
Тип рипа: image+.cue
Битрейт аудио: lossless
Продолжительность: 63:32
Трэклист:
1. Poco Allegretto From Symphony #3 in F Major
2. Second Thoughts
3. Wade In The Water
4. Open My Heart
5. Air From Suite #3
6. Hide & Seek
7. Midnight At The Oasis
8. Last Dance
9. Estrellita
10. The In Crowd
11. Hosanna
 
Files
1.jpg
2.jpg
3.jpg
4.jpg
5.jpg
Disc.jpg
Ramsey Lewis Trio - Time Flies(ape).cue
Ramsey Lewis Trio - Time Flies.ape
Ramsey Lewis Trio - Time Flies.cue
Ramsey Lewis Trio - Time Flies.log
Ramsey Lewis Trio - Time Flies.torrent
tau.jpg
 
EAC Log
Exact Audio Copy V0.99 prebeta 4 from 23. January 2008
Отчёт EAC об извлечении, выполненном 18. июня 2008, 1:06
Ramsey Lewis Trio / Time Flies
Дисковод: _NEC DVD_RW ND-3550A Adapter: 1 ID: 0
Режим чтения : Достоверность
Использование точного потока : Да
Отключение кэша аудио : Да
Использование указателей C2 : Нет
Коррекция смещения при чтении : 48
Способность читать области Lead-in и Lead-out : Нет
Заполнение пропущенных сэмплов тишиной : Да
Удаление блоков с тишиной в начале и конце : Нет
При вычислениях CRC использовались нулевые сэмплы : Нет
Интерфейс : Встроенный Win32-интерфейс для Win NT/2000
Выходной формат : Внутренние WAV-операции
Формат сэмплов : 44.100 Гц; 16 бит; стерео
TOC извлечённого CD
Трек | Старт | Длительность | Начальный сектор | Конечный сектор
---------------------------------------------------------------------
1 | 0:00.00 | 6:32.70 | 0 | 29469
2 | 6:32.70 | 7:36.26 | 29470 | 63695
3 | 14:09.21 | 3:34.11 | 63696 | 79756
4 | 17:43.32 | 7:39.49 | 79757 | 114230
5 | 25:23.06 | 6:24.34 | 114231 | 143064
6 | 31:47.40 | 8:05.72 | 143065 | 179511
7 | 39:53.37 | 3:32.63 | 179512 | 195474
8 | 43:26.25 | 6:51.67 | 195475 | 226366
9 | 50:18.17 | 5:57.12 | 226367 | 253153
10 | 56:15.29 | 3:42.01 | 253154 | 269804
11 | 59:57.30 | 3:35.43 | 269805 | 285972
Характеристики диапазона извлечения и сообщения об ошибках
Выбранный диапазон
Имя файла F:\Torrents\Ramsey Lewis\Ramsey Lewis Trio - Time Flies.wav
Пиковый уровень 98.8 %
Качество диапазона 99.9 %
CRC копии E6156E1F
Копирование... OK
Ошибок не произошло
AccurateRip: сводка
Трек 1 нет в базе данных
Трек 2 нет в базе данных
Трек 3 нет в базе данных
Трек 4 нет в базе данных
Трек 5 нет в базе данных
Трек 6 нет в базе данных
Трек 7 нет в базе данных
Трек 8 нет в базе данных
Трек 9 нет в базе данных
Трек 10 нет в базе данных
Трек 11 нет в базе данных
Ни одного трека нет в базе AccurateRip
Конец отчёта
 
tau
Приватный:
Нет (DHT включён)
Размер:
355.88 Мб (373,168,906 байт) » файлов: 11
Участники:
0 раздают, 0 качают (0 участников всего)
Внешние участники:
--- [ Обновить ]
13:13
5
Нет комментариев. Ваш будет первым!