Поиск

(Smooth Jazz) Everette Harp - My Inspiration 2007 - 2007, FLAC (image + .cue), lossless

(Smooth Jazz) Everette Harp - My Inspiration 2007 - 2007, FLAC (image + .cue), lossless
Треклист:
Everette Harp - My Inspiration 2007
Страна: USA
Жанр: Smooth Jazz
Год выпуска: 2007
Формат: FLAC (image + .cue)
Битрейт аудио: lossless
Продолжительность: 52 min
Трэклист:
1. Juke Joint Everette Harp 5:30
2. All Jazzed Up (And Nowhere To Go) Everette Harp 5:07
3. In Time Everette Harp 5:34
4. Old School Everette Harp 4:26
5. Funky Palisades Everette Harp 4:34
6. In My Father's Eyes Everette Harp 6:31
7. Chasin' Everette Harp 5:13
8. Wait 4 U Brian Simpson 5:18
9. Don't Look Any Further Doc Powell 5:18
10. My Inspiration Everette Harp 5:48
 
скрытый текст
Exact Audio Copy V0.99 prebeta 4 from 23. January 2008
Отчёт EAC об извлечении, выполненном 26. мая 2008, 21:23
Everette Harp / My Inspiration
Дисковод: LITE-ON DVDRW SHW-1635S Adapter: 5 ID: 0
Режим чтения : Достоверность
Использование точного потока : Да
Отключение кэша аудио : Да
Использование указателей C2 : Нет
Коррекция смещения при чтении : 6
Способность читать области Lead-in и Lead-out : Нет
Заполнение пропущенных сэмплов тишиной : Да
Удаление блоков с тишиной в начале и конце : Нет
При вычислениях CRC использовались нулевые сэмплы : Нет
Интерфейс : Встроенный Win32-интерфейс для Win NT/2000
Выходной формат : Пользовательский кодировщик
Выбранный битрейт : 768 kBit/s
Качество : Высокий
Добавление ID3-тэга : Нет
Утилита сжатия : C:\Program Files\Exact Audio Copy\FLAC\FLAC.EXE
Дополнительные параметры : -6 -V -T "ARTIST=%a" -T "TITLE=%t" -T "ALBUM=%g" -T "DATE=%y" -T "TRACKNUMBER=%n" -T "GENRE=%m" -T "COMMENT=%e" %s -o %d
TOC извлечённого CD
Трек | Старт | Длительность | Начальный сектор | Конечный сектор
---------------------------------------------------------------------
1 | 0:00.00 | 5:30.02 | 0 | 24751
2 | 5:30.02 | 5:07.38 | 24752 | 47814
3 | 10:37.40 | 5:34.08 | 47815 | 72872
4 | 16:11.48 | 4:26.72 | 72873 | 92894
5 | 20:38.45 | 4:34.33 | 92895 | 113477
6 | 25:13.03 | 6:31.13 | 113478 | 142815
7 | 31:44.16 | 5:13.65 | 142816 | 166355
8 | 36:58.06 | 5:18.37 | 166356 | 190242
9 | 42:16.43 | 5:18.70 | 190243 | 214162
10 | 47:35.38 | 5:48.31 | 214163 | 240293
Характеристики диапазона извлечения и сообщения об ошибках
Выбранный диапазон
Имя файла D:\Мои торренты\Everette Harp - My Inspiration 2007\Everette Harp - My Inspiration.wav
Пиковый уровень 100.0 %
Качество диапазона 100.0 %
CRC копии 28D10816
Копирование... OK
Ошибок не произошло
AccurateRip: сводка
Трек 1 точное извлечение (доверие 1) [8A2FC8D0]
Трек 2 точное извлечение (доверие 1) [09FBA3F7]
Трек 3 точное извлечение (доверие 1) [C9F2DD35]
Трек 4 точное извлечение (доверие 1) [BAF9B1F8]
Трек 5 точное извлечение (доверие 1) [FC7580FC]
Трек 6 точное извлечение (доверие 1) [A7080D11]
Трек 7 точное извлечение (доверие 1) [127965F9]
Трек 8 точное извлечение (доверие 1) [C592B38E]
Трек 9 точное извлечение (доверие 1) [A12994C6]
Трек 10 точное извлечение (доверие 1) [14A0F36F]
Все треки извлечены точно
Конец отчёта
Доп. информация: Label: Shanachie
Приватный:
Нет (DHT включён)
Размер:
370.49 Мб (388,488,822 байт) » файлов: 3
Участники:
0 раздают, 0 качают (0 участников всего)
Внешние участники:
--- [ Обновить ]
13:01
6
Нет комментариев. Ваш будет первым!