Поиск

(Smooth Jazz) Everette Harp - For The Love 2000 - 2000, FLAC (image + .cue), lossless

(Smooth Jazz) Everette Harp - For The Love 2000 - 2000, FLAC (image + .cue), lossless
Треклист:
Everette Harp - For The Love 2000
Страна: USA
Жанр: Smooth Jazz
Год выпуска: 2000
Формат: FLAC (image + .cue)
Битрейт аудио: lossless
Продолжительность: 49 min
Трэклист:
1. So Automatic (1993 Digital Remaster) 4:33
2. I Just Can't Let Go (1993 Digital Remaster) 4:40
3. I Miss You With Me (1993 Digital Remaster) 4:51
4. I Can't Take It Anymore (1993 Digital Remaster) 3:57
5. Right Back Atcha 4:38
6. Love Conditionally (1993 Digital Remaster) 4:46
7. We Don't Have To Say Goodbye (1993 Digital Remaster) 5:13
8. Dancin With You 4:51
9. Where Were You When I Needed You (1993 Digital Remaster) 4:42
10. Put It Where You Want It (1993 Digital Remaster) 4:39
 
скрытый текст
Exact Audio Copy V0.99 prebeta 4 from 23. January 2008
Отчёт EAC об извлечении, выполненном 26. мая 2008, 20:21
Everette Harp / For The Love
Дисковод: LITE-ON DVDRW SHW-1635S Adapter: 5 ID: 0
Режим чтения : Достоверность
Использование точного потока : Да
Отключение кэша аудио : Да
Использование указателей C2 : Нет
Коррекция смещения при чтении : 6
Способность читать области Lead-in и Lead-out : Нет
Заполнение пропущенных сэмплов тишиной : Да
Удаление блоков с тишиной в начале и конце : Нет
При вычислениях CRC использовались нулевые сэмплы : Нет
Интерфейс : Встроенный Win32-интерфейс для Win NT/2000
Выходной формат : Пользовательский кодировщик
Выбранный битрейт : 768 kBit/s
Качество : Высокий
Добавление ID3-тэга : Нет
Утилита сжатия : C:\Program Files\Exact Audio Copy\FLAC\FLAC.EXE
Дополнительные параметры : -6 -V -T "ARTIST=%a" -T "TITLE=%t" -T "ALBUM=%g" -T "DATE=%y" -T "TRACKNUMBER=%n" -T "GENRE=%m" -T "COMMENT=%e" %s -o %d
TOC извлечённого CD
Трек | Старт | Длительность | Начальный сектор | Конечный сектор
---------------------------------------------------------------------
1 | 0:00.00 | 4:34.00 | 0 | 20549
2 | 4:34.00 | 4:42.67 | 20550 | 41766
3 | 9:16.67 | 4:52.63 | 41767 | 63729
4 | 14:09.55 | 4:00.00 | 63730 | 81729
5 | 18:09.55 | 4:39.37 | 81730 | 102691
6 | 22:49.17 | 4:46.58 | 102692 | 124199
7 | 27:36.00 | 5:15.02 | 124200 | 147826
8 | 32:51.02 | 4:52.60 | 147827 | 169786
9 | 37:43.62 | 4:44.05 | 169787 | 191091
10 | 42:27.67 | 4:39.35 | 191092 | 212051
Характеристики диапазона извлечения и сообщения об ошибках
Выбранный диапазон
Имя файла D:\Мои торренты\Everette Harp - For The Love 2000\Everette Harp - For The Love.wav
Пиковый уровень 100.0 %
Качество диапазона 100.0 %
CRC копии BD706B5B
Копирование... OK
Ошибок не произошло
AccurateRip: сводка
Трек 1 нет в базе данных
Трек 2 нет в базе данных
Трек 3 нет в базе данных
Трек 4 нет в базе данных
Трек 5 нет в базе данных
Трек 6 нет в базе данных
Трек 7 нет в базе данных
Трек 8 нет в базе данных
Трек 9 нет в базе данных
Трек 10 нет в базе данных
Ни одного трека нет в базе AccurateRip
Конец отчёта
Доп. информация: Label: Blue Note Records
Приватный:
Нет (DHT включён)
Размер:
302.82 Мб (317,534,241 байт) » файлов: 3
Участники:
0 раздают, 0 качают (0 участников всего)
Внешние участники:
2 раздают, 1 качают (3 участников всего) [ Обновить ]
13:00
10
Нет комментариев. Ваш будет первым!