Поиск

(Smooth Jazz) Earl Klugh - The Spice Of Life 2008 - 2008, FLAC (image + .cue), lossless

(Smooth Jazz) Earl Klugh - The Spice Of Life 2008 - 2008, FLAC (image + .cue), lossless
Треклист:
Earl Klugh - The Spice Of Life 2008
Страна: USA
Жанр: Smooth Jazz
Год выпуска: 2008
Формат: FLAC (image + .cue)
Битрейт аудио: lossless
Продолжительность: 58 min
Трэклист:
1. Ocean Blue 5:10
2. Sleepy Head 5:09
3. Canadian Sunset 5:34
4. Venezuelan Nights 2:35
5. Driftin' 3:48
6. Snap! 4:41
7. Bye Ya 3:59
8. Heart Of My Life 4:14
9. Morning In Rio 5:27
10. C'est Si Bon 4:53
11. Lucy's World 3:50
12. My Foolish Heart 6:18
13. The Toy Guitar 2:36
 
скрытый текст
Exact Audio Copy V0.99 prebeta 4 from 23. January 2008
Отчёт EAC об извлечении, выполненном 30. мая 2008, 16:11
Earl Klugh / The Spice Of Life
Дисковод: LITE-ON DVDRW SHW-1635S Adapter: 5 ID: 0
Режим чтения : Достоверность
Использование точного потока : Да
Отключение кэша аудио : Да
Использование указателей C2 : Нет
Коррекция смещения при чтении : 6
Способность читать области Lead-in и Lead-out : Нет
Заполнение пропущенных сэмплов тишиной : Да
Удаление блоков с тишиной в начале и конце : Нет
При вычислениях CRC использовались нулевые сэмплы : Нет
Интерфейс : Встроенный Win32-интерфейс для Win NT/2000
Выходной формат : Пользовательский кодировщик
Выбранный битрейт : 768 kBit/s
Качество : Высокий
Добавление ID3-тэга : Нет
Утилита сжатия : C:\Program Files\Exact Audio Copy\FLAC\FLAC.EXE
Дополнительные параметры : -6 -V -T "ARTIST=%a" -T "TITLE=%t" -T "ALBUM=%g" -T "DATE=%y" -T "TRACKNUMBER=%n" -T "GENRE=%m" -T "COMMENT=%e" %s -o %d
TOC извлечённого CD
Трек | Старт | Длительность | Начальный сектор | Конечный сектор
---------------------------------------------------------------------
1 | 0:00.00 | 5:10.66 | 0 | 23315
2 | 5:10.66 | 5:09.19 | 23316 | 46509
3 | 10:20.10 | 5:34.25 | 46510 | 71584
4 | 15:54.35 | 2:35.54 | 71585 | 83263
5 | 18:30.14 | 3:48.32 | 83264 | 100395
6 | 22:18.46 | 4:41.27 | 100396 | 121497
7 | 26:59.73 | 3:59.58 | 121498 | 139480
8 | 30:59.56 | 4:14.49 | 139481 | 158579
9 | 35:14.30 | 5:27.50 | 158580 | 183154
10 | 40:42.05 | 4:53.33 | 183155 | 205162
11 | 45:35.38 | 3:49.71 | 205163 | 222408
12 | 49:25.34 | 6:18.00 | 222409 | 250758
13 | 55:43.34 | 2:36.07 | 250759 | 262465
Характеристики диапазона извлечения и сообщения об ошибках
Выбранный диапазон
Имя файла D:\Мои торренты\Earl Klugh - The Spice Of Life 2008\Earl Klugh - The Spice Of Life.wav
Пиковый уровень 97.7 %
Качество диапазона 100.0 %
CRC копии 45EB7A6B
Копирование... OK
Ошибок не произошло
AccurateRip: сводка
Трек 1 нет в базе данных
Трек 2 нет в базе данных
Трек 3 нет в базе данных
Трек 4 нет в базе данных
Трек 5 нет в базе данных
Трек 6 нет в базе данных
Трек 7 нет в базе данных
Трек 8 нет в базе данных
Трек 9 нет в базе данных
Трек 10 нет в базе данных
Трек 11 нет в базе данных
Трек 12 нет в базе данных
Трек 13 нет в базе данных
Ни одного трека нет в базе AccurateRip
Конец отчёта
Доп. информация: Label: Koch Records
Приватный:
Нет (DHT включён)
Размер:
334.31 Мб (350,553,742 байт) » файлов: 3
Участники:
0 раздают, 0 качают (0 участников всего)
Внешние участники:
--- [ Обновить ]
13:03
12
Нет комментариев. Ваш будет первым!