Поиск

(Smooth Jazz) Brian Culbertson - Bringing Back The Funk - 2008, FLAC (image + .cue), lossless

(Smooth Jazz) Brian Culbertson - Bringing Back The Funk - 2008, FLAC (image + .cue), lossless
Треклист:
Brian Culbertson - Bringing Back The Funk
Страна: USA
Жанр: Smooth Jazz
Год выпуска: 2008
Формат: FLAC (image + .cue)
Битрейт аудио: lossless
Продолжительность: 46 min
Трэклист:
1. Funkin' Like My Father 5:16
2. Always Remember 4:22
3. Hollywood Swinging 4:09
4. The House Of Music 4:51
5. You Got To Funkifize 5:26
6. The Groove 4:42
7. The World Keeps Going Around 4:27
8. Excuse Me... What's Your Name? 1:59
9. Voices Inside (Everything Is Everything) 6:02
10. Let's Stay In Tonight 5:30
 
скрытый текст
Exact Audio Copy V0.99 prebeta 4 from 23. January 2008
Отчёт EAC об извлечении, выполненном 30. мая 2008, 16:56
Brian Culbertson / Bring Back The Funk
Дисковод: LITE-ON DVDRW SHW-1635S Adapter: 5 ID: 0
Режим чтения : Достоверность
Использование точного потока : Да
Отключение кэша аудио : Да
Использование указателей C2 : Нет
Коррекция смещения при чтении : 6
Способность читать области Lead-in и Lead-out : Нет
Заполнение пропущенных сэмплов тишиной : Да
Удаление блоков с тишиной в начале и конце : Нет
При вычислениях CRC использовались нулевые сэмплы : Нет
Интерфейс : Встроенный Win32-интерфейс для Win NT/2000
Выходной формат : Пользовательский кодировщик
Выбранный битрейт : 768 kBit/s
Качество : Высокий
Добавление ID3-тэга : Нет
Утилита сжатия : C:\Program Files\Exact Audio Copy\FLAC\FLAC.EXE
Дополнительные параметры : -6 -V -T "ARTIST=%a" -T "TITLE=%t" -T "ALBUM=%g" -T "DATE=%y" -T "TRACKNUMBER=%n" -T "GENRE=%m" -T "COMMENT=%e" %s -o %d
TOC извлечённого CD
Трек | Старт | Длительность | Начальный сектор | Конечный сектор
---------------------------------------------------------------------
1 | 0:00.00 | 5:15.61 | 0 | 23685
2 | 5:15.61 | 4:22.74 | 23686 | 43409
3 | 9:38.60 | 4:09.25 | 43410 | 62109
4 | 13:48.10 | 4:50.61 | 62110 | 83920
5 | 18:38.71 | 5:26.03 | 83921 | 108373
6 | 24:04.74 | 4:41.53 | 108374 | 129501
7 | 28:46.52 | 4:26.57 | 129502 | 149508
8 | 33:13.34 | 1:59.07 | 149509 | 158440
9 | 35:12.41 | 6:02.53 | 158441 | 185643
10 | 41:15.19 | 5:29.68 | 185644 | 210386
Характеристики диапазона извлечения и сообщения об ошибках
Выбранный диапазон
Имя файла D:\Мои торренты\Brian Culbertson - Bringing Back The Funk 2008\Brian Culbertson - Bring Back The Funk.wav
Пиковый уровень 100.0 %
Качество диапазона 100.0 %
CRC копии 4F079ADB
Копирование... OK
Ошибок не произошло
AccurateRip: сводка
Трек 1 нет в базе данных
Трек 2 нет в базе данных
Трек 3 нет в базе данных
Трек 4 нет в базе данных
Трек 5 нет в базе данных
Трек 6 нет в базе данных
Трек 7 нет в базе данных
Трек 8 нет в базе данных
Трек 9 нет в базе данных
Трек 10 нет в базе данных
Ни одного трека нет в базе AccurateRip
Конец отчёта
Доп. информация: Label: Grp Records
Приватный:
Нет (DHT включён)
Размер:
307.73 Мб (322,682,466 байт) » файлов: 3
Участники:
0 раздают, 0 качают (0 участников всего)
Внешние участники:
--- [ Обновить ]
13:04
4
Нет комментариев. Ваш будет первым!