Поиск

(Smooth Jazz, Contemporary Jazz,Blues) Avenue Blue ft. Jeff Golub - Naked City - 23.01. 1996, FLAC (image+.cue) lossless

(Smooth Jazz, Contemporary Jazz,Blues) Avenue Blue ft. Jeff Golub - Naked City - 23.01. 1996, FLAC (image+.cue) lossless
Треклист:

Avenue Blue ft. Jeff Golub / Naked City
Жанр: Smooth Jazz, Contemporary Jazz,Blues
Страна-производитель диска: USA
Год издания диска: Released: January 23.1996
Издатель (лейбл): Mesa/Bluemoon Records
Номер по каталогу: 2-92658
Страна: USA
Аудио кодек: FLAC (*.flac)
Тип рипа: image+.cue
Битрейт аудио: lossless
Продолжительность: 59:19
Источник (релизер): Рип с собственного диска
Наличие сканов в содержимом раздачи: да

Funky Is as Funky Does - 5:08
Naked City - 4:17
Nitpickin' - 4:40
The Conversation - 5:05
Baby I'm Yours - 4:37
Mamma Didn't Raise No Fool - 5:20
Wildflower - 4:52
Keep The Ball Rollin' - 3:50
The Nite Owl - 4:58
Tumblin' - 4:50
Yohimbe - 4:53
Spooky - 4:20
One More Excuse (To Play the Blues) - 2:25
 
Лог создания рипа
Exact Audio Copy V1.0 beta 1 from 15. November 2010
EAC extraction logfile from 1. December 2010, 19:01
Avenue Blue ft. Jeff Golub / Naked City
Used drive : ASUS DRW-1814BLT Adapter: 2 ID: 1
Read mode : Secure
Utilize accurate stream : Yes
Defeat audio cache : Yes
Make use of C2 pointers : No
Read offset correction : 6
Overread into Lead-In and Lead-Out : No
Fill up missing offset samples with silence : Yes
Delete leading and trailing silent blocks : No
Null samples used in CRC calculations : Yes
Used interface : Native Win32 interface for Win NT & 2000
Used output format : User Defined Encoder
Selected bitrate : 1024 kBit/s
Quality : High
Add ID3 tag : No
Command line compressor : C:\Program Files\Exact Audio Copy\Flac\flac.exe
Additional command line options : -8 -V -T "ARTIST=%a" -T "TITLE=%t" -T "ALBUM=%g" -T "DATE=%y" -T "TRACKNUMBER=%n" -T "GENRE=%m" -T "COMMENT=EAC FLAC -8" %s
TOC of the extracted CD
Track | Start | Length | Start sector | End sector
---------------------------------------------------------
1 | 0:00.32 | 5:08.35 | 32 | 23166
2 | 5:08.67 | 4:17.13 | 23167 | 42454
3 | 9:26.05 | 4:40.32 | 42455 | 63486
4 | 14:06.37 | 5:05.30 | 63487 | 86391
5 | 19:11.67 | 4:36.63 | 86392 | 107154
6 | 23:48.55 | 5:20.45 | 107155 | 131199
7 | 29:09.25 | 4:52.12 | 131200 | 153111
8 | 34:01.37 | 3:49.65 | 153112 | 170351
9 | 37:51.27 | 4:58.35 | 170352 | 192736
10 | 42:49.62 | 4:50.18 | 192737 | 214504
11 | 47:40.05 | 4:53.37 | 214505 | 236516
12 | 52:33.42 | 4:20.23 | 236517 | 256039
13 | 56:53.65 | 2:25.27 | 256040 | 266941
Range status and errors
Selected range
Filename D:\Раздачи на torrents.ru\Avenue Blue ft. Jeff Golub - Naked City.wav
Peak level 100.0 %
Extraction speed 0.3 X
Range quality 100.0 %
Test CRC EC091D23
Copy CRC EC091D23
Copy OK
No errors occurred
AccurateRip summary
Track 1 accurately ripped (confidence 4) [7AE28D11]
Track 2 accurately ripped (confidence 4) [6DD684FD]
Track 3 accurately ripped (confidence 4) [ABE915D2]
Track 4 accurately ripped (confidence 4) [1C2C36B6]
Track 5 accurately ripped (confidence 4) [FEFBB7DF]
Track 6 accurately ripped (confidence 4) [D3B6B687]
Track 7 accurately ripped (confidence 4) [9501D934]
Track 8 accurately ripped (confidence 4) [E140D83E]
Track 9 accurately ripped (confidence 4) [E070DB16]
Track 10 accurately ripped (confidence 4) [2BD7A0AE]
Track 11 accurately ripped (confidence 4) [8A5B69E9]
Track 12 accurately ripped (confidence 4) [2CAD575D]
Track 13 accurately ripped (confidence 4) [23D2C45B]
All tracks accurately ripped
End of status report
Доп. информация: Producer:
Produced by Rick Braun
Co-produced by Jeff Golub and George Nauful
 
Об альбоме (сборнике)
NAKED CITY
Jeff and his band, Avenue Blue are back with their second Bluemoon recording, naked city, revisiting the soul, funk and blues stylings that peppered his acclaimed debut. Adding their talents to the project are guests Bob James and Phoebe Snow, plus a new band of New York musicians.' naked city' features thirteen tracks.....ten Golub - penned originals, plus remakes of such pop classics as "Baby I'm Yours," "Spooky," and "Wildflower." The goal of the new album was to capture the mood and spontaneity of a live club date. For naked city, Jeff and co-producer Rick Braun went into the studio with a full rhythm section and more. Only the horns and a few keyboard and percussion parts were overdubbed. A lot of the tracks were recorded on the first or second take. naked city juxtaposes fluid warmth and cool textures to create moods and atmospheres that both soothe and surprise !
 
Состав
Guest Performers:
Jeff Golub (guitar)
Jim Biggins (tenor sax, flute)
Don Harris (trumpet)
Steve Gaboury (keyboards)
Jeff Levine (hammond b-3 organ)
Lincoln Goins (bass)
Steve Barbuto (drums)
Roger Squitero (percussion)
Raphael DeJesus (percussion)
Scott Breahman (percussion
Все участники проекта,указаны в сканах.
Приватный:
Нет (DHT включён)
Размер:
364.98 Мб (382,704,133 байт) » файлов: 9
Участники:
1 раздают, 0 качают (1 участников всего)
Внешние участники:
1 раздают, 0 качают (1 участников всего) [ Обновить ]
For power users only: no seeders - write personal message to M0p94ok. Для power user: нет сидеров - пишите в личку M0p94ok.
23:22
157
Нет комментариев. Ваш будет первым!