Поиск

(Smooth Jazz) Candy Dulfer - Candy Store - 2007, FLAC (image + .cue), lossless

(Smooth Jazz) Candy Dulfer - Candy Store - 2007, FLAC (image + .cue), lossless
Треклист:
Candy Dulfer - Candy Store
Страна: USA
Жанр: Smooth Jazz
Год выпуска: 2007
Формат: FLAC (covers + .log + .cue)
Битрейт аудио: lossless
Продолжительность: 51 мин.
Трэклист:
1. Candy
2. L.A.Citylights
3. Music=Love
4. L.A.Cabana
5. 11:58
6. Summertime
7. Soulsax
8. Smokin' Gun
9. Back To Juan
10. If I Ruled The World
11. Everytime
12. Finsbury Park Cafe 67
Доп. информация:
Candy Dulfer (alto saxophone)
Janvan Duiheren (trumpet)
Louk Boudesteijn (trombone)
Manuel Hugas, Ulco Bed (bass guitar)
Kasper Van Kooten, John Blackwell (drums)
Brainpower (scratches)
Trijntje Oosterhuis, Chance Howard (background vocals)
 
EAC report
EAC extraction logfile from 18. September 2007, 12:12 for CD
Candy Dulfer / Candy Store
Used drive : TSSTcorpCD/DVDW SH-S182M Adapter: 2 ID: 0
Read mode : Secure with NO C2, accurate stream, disable cache
Read offset correction : 6
Overread into Lead-In and Lead-Out : No
Used output format : C:\EAC\flac-1.1.2-win\bin\flac.exe (User Defined Encoder)
320 kBit/s
Additional command line options : -V -8 -T "artist=%a" -T "title=%t" -T "album=%g" -T "date=%y" -T "tracknumber=%n" -T "genre=%m" %s
Other options :
Fill up missing offset samples with silence : Yes
Delete leading and trailing silent blocks : No
Installed external ASPI interface
Track 1
Filename E:\Candy Dulfer - Candy Store (2007) [FLAC]\01 - Candy.wav
Pre-gap length 0:00:02.00
Peak level 99.4 %
Track quality 100.0 %
Test CRC 4E79685A
Copy CRC 4E79685A
Copy OK
Track 2
Filename E:\Candy Dulfer - Candy Store (2007) [FLAC]\02 - L.A.Citylights.wav
Pre-gap length 0:00:01.73
Peak level 99.4 %
Track quality 100.0 %
Test CRC B6293387
Copy CRC B6293387
Copy OK
Track 3
Filename E:\Candy Dulfer - Candy Store (2007) [FLAC]\03 - Music=Love.wav
Pre-gap length 0:00:01.76
Peak level 99.4 %
Track quality 100.0 %
Test CRC 6B4B4599
Copy CRC 6B4B4599
Copy OK
Track 4
Filename E:\Candy Dulfer - Candy Store (2007) [FLAC]\04 - L.A.Cabana.wav
Pre-gap length 0:00:01.76
Peak level 99.4 %
Track quality 100.0 %
Test CRC 6AABB708
Copy CRC 6AABB708
Copy OK
Track 5
Filename E:\Candy Dulfer - Candy Store (2007) [FLAC]\05 - 11-58.wav
Pre-gap length 0:00:02.65
Peak level 99.4 %
Track quality 100.0 %
Test CRC 3CEC5A83
Copy CRC 3CEC5A83
Copy OK
Track 6
Filename E:\Candy Dulfer - Candy Store (2007) [FLAC]\06 - Summertime.wav
Pre-gap length 0:00:01.73
Peak level 99.4 %
Track quality 100.0 %
Test CRC B5C15941
Copy CRC B5C15941
Copy OK
Track 7
Filename E:\Candy Dulfer - Candy Store (2007) [FLAC]\07 - Soulsax.wav
Peak level 99.4 %
Track quality 100.0 %
Test CRC 5905B823
Copy CRC 5905B823
Copy OK
Track 8
Filename E:\Candy Dulfer - Candy Store (2007) [FLAC]\08 - Smokin' Gun.wav
Peak level 99.4 %
Track quality 100.0 %
Test CRC F92ADE39
Copy CRC F92ADE39
Copy OK
Track 9
Filename E:\Candy Dulfer - Candy Store (2007) [FLAC]\09 - Back To Juan.wav
Pre-gap length 0:00:03.25
Peak level 99.4 %
Track quality 100.0 %
Test CRC 1D90A1F5
Copy CRC 1D90A1F5
Copy OK
Track 10
Filename E:\Candy Dulfer - Candy Store (2007) [FLAC]\10 - If I Ruled The World.wav
Pre-gap length 0:00:01.73
Peak level 99.4 %
Track quality 99.9 %
Test CRC F2475483
Copy CRC F2475483
Copy OK
Track 11
Filename E:\Candy Dulfer - Candy Store (2007) [FLAC]\11 - Everytime.wav
Pre-gap length 0:00:01.77
Peak level 99.4 %
Track quality 100.0 %
Test CRC C2C711ED
Copy CRC C2C711ED
Copy OK
Track 12
Filename E:\Candy Dulfer - Candy Store (2007) [FLAC]\12 - Finsbury Park Cafe 67 (2007 Version).wav
Pre-gap length 0:00:02.65
Peak level 99.4 %
Track quality 100.0 %
Test CRC 962E055B
Copy CRC 962E055B
Copy OK
No errors occured
End of status report
 
CUE
REM GENRE Jazz+Funk
REM DATE 2007
REM DISCID A90BD30C
REM COMMENT "ExactAudioCopy v0.95b3"
PERFORMER "Candy Dulfer"
TITLE "Candy Store"
FILE "01 - Candy.wav" WAVE
TRACK 01 AUDIO
TITLE "Candy"
PERFORMER "Candy Dulfer"
INDEX 01 00:00:00
TRACK 02 AUDIO
TITLE "L.A.Citylights"
PERFORMER "Candy Dulfer"
INDEX 00 04:09:20
FILE "02 - L.A.Citylights.wav" WAVE
INDEX 01 00:00:00
TRACK 03 AUDIO
TITLE "Music=Love"
PERFORMER "Candy Dulfer"
INDEX 00 03:43:54
FILE "03 - Music=Love.wav" WAVE
INDEX 01 00:00:00
TRACK 04 AUDIO
TITLE "L.A.Cabana"
PERFORMER "Candy Dulfer"
INDEX 00 03:52:45
FILE "04 - L.A.Cabana.wav" WAVE
INDEX 01 00:00:00
TRACK 05 AUDIO
TITLE "11:58"
PERFORMER "Candy Dulfer"
INDEX 00 03:00:49
FILE "05 - 11-58.wav" WAVE
INDEX 01 00:00:00
TRACK 06 AUDIO
TITLE "Summertime"
PERFORMER "Candy Dulfer"
INDEX 00 04:00:20
FILE "06 - Summertime.wav" WAVE
INDEX 01 00:00:00
FILE "07 - Soulsax.wav" WAVE
TRACK 07 AUDIO
TITLE "Soulsax"
PERFORMER "Candy Dulfer"
INDEX 01 00:00:00
FILE "08 - Smokin' Gun.wav" WAVE
TRACK 08 AUDIO
TITLE "Smokin' Gun"
PERFORMER "Candy Dulfer"
INDEX 01 00:00:00
TRACK 09 AUDIO
TITLE "Back To Juan"
PERFORMER "Candy Dulfer"
INDEX 00 04:47:58
FILE "09 - Back To Juan.wav" WAVE
INDEX 01 00:00:00
TRACK 10 AUDIO
TITLE "If I Ruled The World"
PERFORMER "Candy Dulfer"
INDEX 00 04:25:46
FILE "10 - If I Ruled The World.wav" WAVE
INDEX 01 00:00:00
TRACK 11 AUDIO
TITLE "Everytime"
PERFORMER "Candy Dulfer"
INDEX 00 04:41:35
FILE "11 - Everytime.wav" WAVE
INDEX 01 00:00:00
TRACK 12 AUDIO
TITLE "Finsbury Park Cafe 67 (2007 Version)"
PERFORMER "Candy Dulfer"
INDEX 00 04:29:63
FILE "12 - Finsbury Park Cafe 67 (2007 Version).wav" WAVE
INDEX 01 00:00:00
Скачивание доступно после регистрации!!
Приватный:
Нет (DHT включён)
Размер:
334.69 Мб (350,948,719 байт) » файлов: 32
Участники:
0 раздают, 0 качают (0 участников всего)
Внешние участники:
7 раздают, 2 качают (9 участников всего) [ Обновить ]
11:02
10
Нет комментариев. Ваш будет первым!