Поиск

(Jazz) Gregg Karukas - Looking up - 2004, APE (image + .cue), lossless

Треклист:
Gregg Karukas - Looking up
Страна: США
Жанр: Jazz
Год выпуска: 2004
Формат: APE (image + .cue)
Битрейт аудио: lossless
Продолжительность: 54 мин.
Трэклист:
1. Girl In The Red Dress - (with Michael O'Neill)
2. London Underground - (with Michael O'Neill)
3. Looking Up - (with Thom Rotella)
4. Relentless - (with Michael O'Neill)
5. First Flight Home - (with Rick Braun/Ricardo Silveira)
6. Show Me The Way - (with Michael O'Neill/Andy Suzuki)
7. Corner Club/Clube De Esquina - (with Ricardo Silveira/Andy Suzuki)
8. Isabella - (with Richard Smith)
9. Cross Rhodes - (with Ricardo Silveira/Michael O'Neill/Andy Suzuki)
10. Deep Into You - (with Peter White/Richard Smith)
11. Lost In Negril - (with Richard Smith)
Доп. информация: Оф.сайт альбома - http://www.karukas.com/music_lookingup.htm
 
Отчет EAC
Exact Audio Copy V0.99 prebeta 3 from 28. July 2007
EAC extraction logfile from 22. September 2007, 9:19
Gregg Karukas / Looking Up
Used drive : Optiarc DVD RW AD-7170A Adapter: 0 ID: 0
Read mode : Secure
Utilize accurate stream : Yes
Defeat audio cache : Yes
Make use of C2 pointers : No
Combined read/write offset correction : 0
Overread into Lead-In and Lead-Out : No
Fill up missing offset samples with silence : Yes
Delete leading and trailing silent blocks : No
Null samples used in CRC calculations : Yes
Used interface : Installed external ASPI interface
Used output format : Internal WAV Routines
Sample format : 44.100 Hz; 16 Bit; Stereo
TOC of the extracted CD
Track | Start | Length | Start sector | End sector
---------------------------------------------------------
1 | 0:00.00 | 4:56.17 | 0 | 22216
2 | 4:56.17 | 4:40.65 | 22217 | 43281
3 | 9:37.07 | 4:49.15 | 43282 | 64971
4 | 14:26.22 | 4:22.53 | 64972 | 84674
5 | 18:49.00 | 4:41.73 | 84675 | 105822
6 | 23:30.73 | 4:57.37 | 105823 | 128134
7 | 28:28.35 | 6:12.25 | 128135 | 156059
8 | 34:40.60 | 5:24.16 | 156060 | 180375
9 | 40:05.01 | 4:06.24 | 180376 | 198849
10 | 44:11.25 | 5:16.00 | 198850 | 222549
11 | 49:27.25 | 4:44.47 | 222550 | 243896
Range status and errors
Selected range
Filename Gregg Karukas - Looking Up.wav
Peak level 99.8 %
Range quality 99.9 %
Test CRC 734385B2
Copy CRC 734385B2
Copy OK
No errors occurred
End of status report
Скачивание доступно после регистрации!!
Приватный:
Нет (DHT включён)
Размер:
341.90 Мб (358,509,004 байт) » файлов: 14
Участники:
0 раздают, 0 качают (0 участников всего)
Внешние участники:
1 раздают, 0 качают (1 участников всего) [ Обновить ]
11:03
8
Нет комментариев. Ваш будет первым!