Поиск

(Samba, Bossa Nova) Wanda de Sah (Wanda Sa) & The Sergio Mendes Trio - Brasil '65 ∙ Softly - 1965 (2008), FLAC (image+.cue) lossless

(Samba, Bossa Nova) Wanda de Sah (Wanda Sa) & The Sergio Mendes Trio - Brasil '65 ∙ Softly - 1965 (2008), FLAC (image+.cue) lossless
Треклист:
Wanda de Sah & The Sergio Mendes Trio - Brasil '65 ∙ Softly
Жанр: Samba, Bossa Nova
Производитель диска: EMI Music / USA
Год издания диска: 1965 (2008)
Каталожный №: 31621
Аудио кодек: FLAC (*.flac)
Тип рипа: image+.cue
Битрейт аудио: lossless
Продолжительность: 27:47 + 27:15 = 55:02
Brasil '65 (1965)
01. So Nice (Samba de Verao) (2:12)
02. Somewhere in the Hills (2:57)
03. Berimbau (3:20)
04. Tristeza Em Min (2:01)
05. Aquarius (2:25)
06. One-note Samba (2:23)
07. She's a Carioca (3:26)
08. Muito a Vontade (2:59)
09. Let Me (Deixa) (2:52)
10. Consolacao (3:13)
Softly (1965)
11. Reza (2:59)
12. Ho Ba La La (2:28)
13. Sweet Happy Life (Samba de Orfeu) (2:35)
14. Quiet Nights of Quiet Stars (Corcovado) (2:05)
15. Aruanda (1:53)
16. The Dreamer (2:43)
17. So Danco Samba (Jazz'n'Samba) (2:15)
18. Once I Loved (2:11)
19. Who Knows (1:44)
20. Tem Do (1:53)
21. With Feeling (2:14)
22. Agua de Beber (2:13)
Рип с оригинального диска.
 
EAC
Exact Audio Copy V0.99 prebeta 5 from 4. May 2009
EAC extraction logfile from 16. September 2010, 20:22
Wanda de Sah / Brasil' 65 / Softly
Used drive : HL-DT-STDVD-RAM GH22NP20 Adapter: 0 ID: 0
Read mode : Secure
Utilize accurate stream : Yes
Defeat audio cache : Yes
Make use of C2 pointers : No
Read offset correction : 102
Overread into Lead-In and Lead-Out : No
Fill up missing offset samples with silence : Yes
Delete leading and trailing silent blocks : No
Null samples used in CRC calculations : Yes
Used interface : Native Win32 interface for Win NT & 2000
Used output format : User Defined Encoder
Selected bitrate : 1024 kBit/s
Quality : High
Add ID3 tag : No
Command line compressor : C:\Program Files (x86)\Exact Audio Copy\Flac\flac.exe
Additional command line options : -V -6 -T "artist=%a" -T "title=%t" -T "album=%g" -T "date=%y" -T "tracknumber=%n" -T "genre=%m" %s
TOC of the extracted CD
Track | Start | Length | Start sector | End sector
---------------------------------------------------------
1 | 0:00.00 | 2:11.52 | 0 | 9876
2 | 2:11.52 | 2:56.47 | 9877 | 23123
3 | 5:08.24 | 3:20.23 | 23124 | 38146
4 | 8:28.47 | 2:00.50 | 38147 | 47196
5 | 10:29.22 | 2:24.55 | 47197 | 58051
6 | 12:54.02 | 2:22.46 | 58052 | 68747
7 | 15:16.48 | 3:26.35 | 68748 | 84232
8 | 18:43.08 | 2:59.27 | 84233 | 97684
9 | 21:42.35 | 2:52.01 | 97685 | 110585
10 | 24:34.36 | 3:12.48 | 110586 | 125033
11 | 27:47.09 | 2:59.29 | 125034 | 138487
12 | 30:46.38 | 2:28.22 | 138488 | 149609
13 | 33:14.60 | 2:35.20 | 149610 | 161254
14 | 35:50.05 | 2:05.35 | 161255 | 170664
15 | 37:55.40 | 1:53.14 | 170665 | 179153
16 | 39:48.54 | 2:42.70 | 179154 | 191373
17 | 42:31.49 | 2:15.01 | 191374 | 201499
18 | 44:46.50 | 2:10.69 | 201500 | 211318
19 | 46:57.44 | 1:44.18 | 211319 | 219136
20 | 48:41.62 | 1:52.47 | 219137 | 227583
21 | 50:34.34 | 2:14.31 | 227584 | 237664
22 | 52:48.65 | 2:13.27 | 237665 | 247666
Range status and errors
Selected range
Filename D:\Rips\Wanda de Sah - Brasil' 65, Softly (1965)\Wanda de Sah - Brasil' 65, Softly.wav
Peak level 97.7 %
Range quality 100.0 %
Test CRC 0EA1003E
Copy CRC 0EA1003E
Copy OK
No errors occurred
AccurateRip summary
Track 1 not present in database
Track 2 not present in database
Track 3 not present in database
Track 4 not present in database
Track 5 not present in database
Track 6 not present in database
Track 7 not present in database
Track 8 not present in database
Track 9 not present in database
Track 10 not present in database
Track 11 not present in database
Track 12 not present in database
Track 13 not present in database
Track 14 not present in database
Track 15 not present in database
Track 16 not present in database
Track 17 not present in database
Track 18 not present in database
Track 19 not present in database
Track 20 not present in database
Track 21 not present in database
Track 22 not present in database
None of the tracks are present in the AccurateRip database
End of status report
16:56
418
Нет комментариев. Ваш будет первым!